<?xml version="1.0" standalone="no"?>
<!DOCTYPE svg PUBLIC "-//W3C//DTD SVG 1.1//EN" "http://www.w3.org/Graphics/SVG/1.1/DTD/svg11.dtd" >
<svg xmlns="http://www.w3.org/2000/svg">
<metadata></metadata>
<defs>
<font id="sansblackregular" horiz-adv-x="1024" >
<font-face units-per-em="2048" ascent="1638" descent="-410" />
<missing-glyph horiz-adv-x="567" />
<glyph horiz-adv-x="2048" />
<glyph horiz-adv-x="2048" />
<glyph unicode="&#xd;" horiz-adv-x="567" />
<glyph unicode=" "  horiz-adv-x="567" />
<glyph unicode="&#x09;" horiz-adv-x="567" />
<glyph unicode="&#xa0;" horiz-adv-x="567" />
<glyph unicode="!" horiz-adv-x="663" d="M111 1260v174h442v-174l-119 -793h-205zM129 0v348h406v-348h-406z" />
<glyph unicode="&#x22;" horiz-adv-x="1099" d="M70 698l45 736h417v-11l-260 -725h-202zM594 698l47 736h418v-11l-260 -725h-205z" />
<glyph unicode="#" horiz-adv-x="1445" d="M59 276v330h217l39 230h-188v329h246l45 269h297l-47 -269h260l45 269h297l-45 -269h159v-329h-217l-39 -230h189v-330h-244l-49 -276h-297l49 276h-260l-47 -276h-297l47 276h-160zM563 598h275l41 246h-273z" />
<glyph unicode="$" horiz-adv-x="1363" d="M51 207l185 272q193 -135 380 -168v246q-260 61 -370 156q-127 104 -127 286v5q0 281 282 389q90 35 207 43v116h213v-122q240 -27 432 -160l-168 -275q-123 88 -274 123v-237q252 -59 367 -156q123 -104 122 -291v-4q0 -199 -149 -313q-129 -98 -334 -117v-201h-213v205 q-319 35 -553 203zM479 1030q0 -78 139 -115v222q-139 -12 -139 -103v-4zM809 299q137 14 137 104v5q0 78 -137 116v-225z" />
<glyph unicode="%" horiz-adv-x="1841" d="M72 1065v4q0 164 104.5 274.5t265.5 110.5q162 0 265.5 -111.5t103.5 -271.5v-4q0 -164 -105.5 -274.5t-265.5 -110.5q-164 0 -266 110.5t-102 272.5zM229 0l1106 1434h277l-1106 -1434h-277zM322 1067q0 -61 28 -106q35 -54 92 -54t90 51q29 45 29 107v4q0 61 -29 107 q-35 53 -92 53t-87.5 -48t-30.5 -110v-4zM1030 362v5q0 164 104.5 274.5t266.5 110.5q164 0 266 -111t102 -272v-4q0 -164 -105 -274.5t-265 -110.5q-162 0 -265.5 111.5t-103.5 270.5zM1280 365q0 -59 29 -107q35 -53 92 -53t90 51q29 45 29 106v5q0 61 -29 106 q-33 53 -92 53t-92 -51q-27 -43 -27 -106v-4z" />
<glyph unicode="&#x26;" horiz-adv-x="1429" d="M43 389v4q0 270 291 402q-94 137 -94 274v4q0 125 73 221q70 90 189 138q84 31 188 30q193 0 309.5 -104.5t116.5 -263.5v-4q0 -242 -280 -373l159 -156q66 94 135 227l263 -131q-102 -186 -189 -303l193 -190l-269 -193l-147 150q-193 -145 -426 -146q-225 0 -365 109 q-147 113 -147 305zM440 410q0 -68 49 -105t119 -37q82 0 170 62l-235 239q-102 -63 -103 -155v-4zM575 1059q0 -70 74 -164q152 68 152 176v4q0 115 -111 115q-53 0 -84 -36t-31 -91v-4z" />
<glyph unicode="'" horiz-adv-x="581" d="M70 698l45 736h426v-11l-260 -725h-211z" />
<glyph unicode="(" horiz-adv-x="911" d="M90 588q0 299 156 518q141 199 442 358l162 -241q-188 -129 -279 -271q-100 -158 -100 -364q0 -209 104 -369q90 -139 275 -266l-162 -242q-301 160 -442 359q-156 219 -156 518z" />
<glyph unicode=")" horiz-adv-x="911" d="M61 -47q188 129 279 270q100 158 100 365q0 209 -104 368q-88 139 -275 267l162 241q301 -160 443 -358q156 -219 155 -518q0 -299 -155 -518q-141 -199 -443 -359z" />
<glyph unicode="*" horiz-adv-x="870" d="M57 973l260 92l-260 92l111 191l211 -181l-51 271h215l-51 -271l210 181l111 -191l-260 -92l260 -92l-111 -189l-210 181l51 -271h-215l51 271l-211 -181z" />
<glyph unicode="+" horiz-adv-x="1310" d="M131 549v344h346v352h357v-352h346v-344h-346v-352h-357v352h-346z" />
<glyph unicode="," horiz-adv-x="581" d="M41 -188q211 25 205 192h-158v399h406v-325q0 -219 -115 -320q-106 -92 -307 -96z" />
<glyph unicode="-" horiz-adv-x="835" d="M82 469v342h672v-342h-672z" />
<glyph unicode="." horiz-adv-x="581" d="M88 0v399h406v-399h-406z" />
<glyph unicode="/" horiz-adv-x="1095" d="M-78 -262l907 1896h316l-907 -1896h-316z" />
<glyph unicode="0" horiz-adv-x="1495" d="M84 713v4q0 313 183.5 529t482.5 216t483 -217q178 -211 178 -524v-4q0 -317 -178 -524q-191 -222 -488 -222q-301 0 -483 219q-178 211 -178 523zM483 717q0 -272 158 -365q50 -28 109 -28q182 0 243 233q18 70 19 156v4q0 268 -158 364q-49 29 -109 29 q-184 0 -243 -231q-18 -72 -19 -158v-4z" />
<glyph unicode="1" horiz-adv-x="864" d="M16 1325l420 119h289v-1444h-391v1073l-242 -55z" />
<glyph unicode="2" horiz-adv-x="1277" d="M68 0v299l536 410q184 141 184 258q0 70 -45 107.5t-114 37.5q-123 0 -285 -184l-268 223q127 162 254 231q137 76 329 76q160 0 287 -65q141 -72 203 -205q39 -86 39 -187v-4q0 -164 -86 -278q-76 -104 -246 -223l-246 -172h592v-324h-1134z" />
<glyph unicode="3" horiz-adv-x="1271" d="M37 225l250 250q164 -164 342 -164q76 0 130 36t54 110v4q0 147 -233 147h-168l-58 207l330 297h-549v322h1036v-285l-342 -293q371 -80 371 -403v-4q0 -225 -170 -357q-156 -121 -383 -121q-383 0 -610 254z" />
<glyph unicode="4" horiz-adv-x="1411" d="M27 559l743 885h401v-869h183v-296h-183v-279h-385v279h-694zM444 573h342v412z" />
<glyph unicode="5" horiz-adv-x="1290" d="M39 199l227 266q186 -156 348 -156q90 0 146 39q66 43 65 129v4q0 84 -65 127q-57 39 -146 39q-111 0 -229 -72l-235 132l40 727h959v-328h-645l-12 -217q113 51 229 51q219 0 355 -122t136 -333v-4q0 -248 -180 -385q-161 -125 -411 -125q-336 0 -582 228z" />
<glyph unicode="6" horiz-adv-x="1355" d="M84 672v4q0 350 166 561q176 225 500 225q266 0 477 -157l-187 -281q-145 109 -284 109q-238 0 -271 -306q147 111 310 111q205 0 339 -124t134 -322v-5q0 -172 -93.5 -298t-254.5 -181q-105 -37 -222 -37q-274 0 -438 164q-176 176 -176 537zM479 467q0 -86 58.5 -136 t144.5 -50t142.5 49t56.5 135v4q0 86 -58.5 135t-144.5 49t-142.5 -48t-56.5 -134v-4z" />
<glyph unicode="7" horiz-adv-x="1257" d="M94 1100v334h1104v-299l-633 -1135h-438l631 1100h-664z" />
<glyph unicode="8" horiz-adv-x="1290" d="M55 395v4q0 240 246 344q-197 111 -197 312v4q0 137 97 237q86 90 225 134q98 29 219 28q242 0 391.5 -113.5t149.5 -285.5v-4q0 -201 -197 -312q246 -109 246 -342v-4q0 -150 -107 -256q-92 -94 -245 -135q-109 -31 -238 -31q-260 0 -425 118t-165 302zM438 434 q0 -80 66 -123q57 -39 141 -39t141 39q66 43 66 123v4q0 78 -68 119q-57 37 -139 37t-139 -37q-68 -41 -68 -119v-4zM469 1010q0 -74 51 -116t125 -42t125 41t51 115v4q0 70 -52 110.5t-124 40.5t-121 -39q-55 -41 -55 -110v-4z" />
<glyph unicode="9" horiz-adv-x="1355" d="M88 936v4q0 242 170 387q160 135 401 135q272 0 442.5 -170t170.5 -528v-4q0 -360 -170 -570q-177 -219 -494 -219q-285 0 -499 170l186 275q143 -115 307 -115q240 0 270 299q-121 -117 -303 -117q-150 0 -266 66q-123 70 -178 199q-37 84 -37 188zM473 956 q0 -88 58.5 -138t146.5 -50q86 0 143.5 50t57.5 136v4q0 88 -57.5 141.5t-147.5 53.5t-145.5 -52t-55.5 -140v-5z" />
<glyph unicode=":" horiz-adv-x="602" d="M98 0v399h406v-399h-406zM98 709v399h406v-399h-406z" />
<glyph unicode=";" horiz-adv-x="602" d="M51 -193q211 25 205 193h-158v399h406v-325q0 -219 -115 -320q-106 -92 -307 -96zM98 709v399h406v-399h-406z" />
<glyph unicode="&#x3c;" horiz-adv-x="1318" d="M133 539v362l1018 406v-363l-670 -223l670 -223v-365z" />
<glyph unicode="=" horiz-adv-x="1308" d="M152 274v342h1005v-342h-1005zM152 825v342h1005v-342h-1005z" />
<glyph unicode="&#x3e;" horiz-adv-x="1318" d="M168 133v363l670 223l-670 223v365l1018 -406v-362z" />
<glyph unicode="?" horiz-adv-x="1105" d="M20 1241q215 215 531 215q229 0 370.5 -115.5t141.5 -314.5v-4q0 -180 -115 -287q-96 -92 -284 -137l-25 -131h-248l-51 342l16 18q322 27 322 164v2q0 113 -154 113q-152 0 -299 -135zM307 0v348h404v-348h-404z" />
<glyph unicode="@" horiz-adv-x="1976" d="M92 563q0 381 265.5 640t641.5 259q373 0 633 -239q250 -233 250 -557q0 -264 -133 -414q-121 -135 -303 -135q-225 0 -316 155q-133 -152 -301 -151q-174 0 -276 123q-98 115 -98 288q0 152 73.5 288t204.5 204q82 41 174 41q176 0 275 -152l24 125l318 -49l-94 -528 q-8 -45 -9 -90q0 -57 38 -89t95 -32q131 0 195 151q47 113 47 265q0 293 -223 499q-233 215 -574 215q-354 0 -587.5 -237.5t-233.5 -579.5q0 -358 237.5 -585.5t590.5 -227.5q264 0 501 137l41 -65q-253 -154 -542 -154q-393 0 -653.5 260t-260.5 635zM782 557 q0 -160 150 -160q131 0 182 144q14 43 14 92q0 70 -40.5 112.5t-108.5 42.5q-129 0 -180 -139q-16 -43 -17 -92z" />
<glyph unicode="A" horiz-adv-x="1628" d="M12 0l611 1444h383l610 -1444h-426l-105 256h-553l-102 -256h-418zM649 565h322l-160 408z" />
<glyph unicode="B" horiz-adv-x="1464" d="M127 0v1434h735q262 0 391 -129q92 -92 93 -232v-4q0 -225 -222 -319q285 -94 285 -351v-4q0 -211 -174 -313q-143 -82 -369 -82h-739zM514 319h307q190 0 191 132v4q0 129 -195 129h-303v-265zM514 862h250q188 0 188 125v4q0 123 -180 123h-258v-252z" />
<glyph unicode="C" horiz-adv-x="1495" d="M78 713v4q0 322 219 533.5t537 211.5q211 0 366 -82q141 -78 242 -217l-299 -231q-133 168 -314 168q-154 0 -249 -117q-92 -109 -93 -262v-4q0 -158 94.5 -270.5t247.5 -112.5q176 0 324 174l299 -213q-172 -236 -420 -299q-96 -25 -215 -25q-313 0 -522 211 q-217 215 -217 531z" />
<glyph unicode="D" horiz-adv-x="1566" d="M127 0v1434h553q379 0 598 -199q211 -193 211 -510v-4q0 -346 -246 -543q-223 -178 -571 -178h-545zM524 352h162q178 0 283 90q113 96 112 273v4q0 174 -109.5 268t-285.5 94h-162v-729z" />
<glyph unicode="E" horiz-adv-x="1366" d="M127 0v1434h1153v-338h-760v-217h688v-314h-688v-227h770v-338h-1163z" />
<glyph unicode="F" horiz-adv-x="1327" d="M127 0v1434h1147v-349h-750v-243h678v-330h-678v-512h-397z" />
<glyph unicode="G" horiz-adv-x="1574" d="M78 713v4q0 324 227 538q223 207 545 207q338 0 582 -209l-234 -280q-160 135 -346 135q-158 0 -262.5 -118t-104.5 -275v-4q0 -176 111 -287t278 -111q139 0 230 60v174h-283v291h660v-645q-269 -222 -623 -222q-338 0 -559 209t-221 533z" />
<glyph unicode="H" horiz-adv-x="1558" d="M127 0v1434h397v-537h510v537h398v-1434h-398v545h-510v-545h-397z" />
<glyph unicode="I" horiz-adv-x="669" d="M135 0v1434h400v-1434h-400z" />
<glyph unicode="J" horiz-adv-x="1155" d="M8 217l256 242q113 -133 223 -133q164 0 164 200v908h396v-910q0 -262 -143.5 -405.5t-391.5 -143.5q-254 0 -418 148q-49 43 -86 94z" />
<glyph unicode="K" horiz-adv-x="1495" d="M127 0v1434h397v-582l494 582h471l-543 -617l561 -817h-477l-360 532l-146 -161v-371h-397z" />
<glyph unicode="L" horiz-adv-x="1261" d="M127 0v1434h397v-1086h695v-348h-1092z" />
<glyph unicode="M" horiz-adv-x="1777" d="M127 0v1434h420l342 -555l342 555h420v-1434h-396v823l-366 -561h-8l-365 557v-819h-389z" />
<glyph unicode="N" horiz-adv-x="1607" d="M127 0v1434h371l589 -758v758h394v-1434h-348l-613 786v-786h-393z" />
<glyph unicode="O" horiz-adv-x="1701" d="M78 713v4q0 322 231 536q223 209 543 209q330 0 550 -216t220 -525v-4q0 -322 -231 -537q-224 -209 -543 -209q-330 0 -550 216t-220 526zM485 717q0 -162 104.5 -274.5t262.5 -112.5q160 0 264 114q100 109 101 269v4q0 160 -105.5 273.5t-263.5 113.5 q-160 0 -261.5 -111.5t-101.5 -271.5v-4z" />
<glyph unicode="P" horiz-adv-x="1378" d="M127 0v1434h614q274 0 435 -133.5t161 -370.5v-4q0 -246 -174 -385q-164 -131 -442 -131h-197v-410h-397zM524 721h189q98 0 157 43q70 49 70 143v4q0 188 -229 189h-187v-379z" />
<glyph unicode="Q" horiz-adv-x="1701" d="M78 713v4q0 322 231 536q223 209 543 209q330 0 550 -216t220 -525v-4q0 -229 -127 -412l147 -125l-200 -223l-158 141q-197 -127 -436 -127q-330 0 -550 216t-220 526zM485 713q0 -162 104.5 -275.5t262.5 -113.5q76 0 145 26l-198 170l200 225l195 -176q25 63 25 140v4 q0 164 -105.5 277.5t-265.5 113.5t-261.5 -113.5t-101.5 -273.5v-4z" />
<glyph unicode="R" horiz-adv-x="1472" d="M127 0v1434h678q309 0 467 -156q127 -125 127 -334v-4q0 -315 -295 -440l342 -500h-459l-289 434h-174v-434h-397zM524 745h262q213 0 213 170v5q0 170 -215 170h-260v-345z" />
<glyph unicode="S" horiz-adv-x="1335" d="M18 213l222 264q215 -172 465 -172q164 0 163 98v5q0 66 -120 106q-43 12 -121 31q-270 61 -383 141q-158 106 -158 309v4q0 156 88 269q86 106 236 157q102 33 231 33q354 0 590 -190l-199 -281q-199 141 -401 141q-143 0 -144 -92v-4q0 -68 127 -106q49 -16 121 -33 q268 -59 391 -150q143 -104 144 -297v-4q0 -164 -92.5 -275.5t-249.5 -158.5q-107 -33 -238 -33q-406 0 -672 238z" />
<glyph unicode="T" horiz-adv-x="1351" d="M47 1085v349h1258v-349h-431v-1085h-397v1085h-430z" />
<glyph unicode="U" horiz-adv-x="1552" d="M109 629v805h403v-797q0 -305 264 -305t264 295v807h404v-795q0 -336 -182 -506q-173 -160 -490 -160t-485 160q-178 166 -178 496z" />
<glyph unicode="V" horiz-adv-x="1556" d="M12 1434h445l325 -908l326 908h436l-581 -1444h-369z" />
<glyph unicode="W" horiz-adv-x="2287" d="M31 1434h420l249 -830l277 834h342l276 -834l250 830h412l-479 -1444h-346l-289 825l-287 -825h-346z" />
<glyph unicode="X" horiz-adv-x="1499" d="M23 0l491 729l-471 705h457l254 -404l256 404h446l-471 -701l492 -733h-457l-275 432l-276 -432h-446z" />
<glyph unicode="Y" horiz-adv-x="1480" d="M-4 1434h453l294 -523l297 523h445l-545 -891v-543h-399v537z" />
<glyph unicode="Z" horiz-adv-x="1429" d="M82 0v289l719 809h-695v336h1244v-289l-719 -809h719v-336h-1268z" />
<glyph unicode="[" horiz-adv-x="935" d="M135 -266v1700h709v-265h-361v-1171h361v-264h-709z" />
<glyph unicode="\" horiz-adv-x="1095" d="M-49 1634h315l908 -1896h-316z" />
<glyph unicode="]" horiz-adv-x="935" d="M92 -2h361v1171h-361v265h709v-1700h-709v264z" />
<glyph unicode="^" d="M86 1010l295 422h262l295 -422h-272l-156 198l-156 -198h-268z" />
<glyph unicode="_" horiz-adv-x="1228" d="M-4 -90h1237v-238h-1237v238z" />
<glyph unicode="`" d="M180 1464l363 117l213 -379h-275z" />
<glyph unicode="a" horiz-adv-x="1226" d="M49 317v5q0 180 135 270q115 78 299 78q143 0 267 -43v18q0 180 -222 180q-147 0 -305 -61l-80 274q209 86 449 86q285 0 422 -135q119 -117 119 -352v-637h-385v115q-125 -140 -326 -140q-166 0 -266 91q-106 92 -107 251zM424 340q0 -121 137 -121q86 0 139.5 49 t53.5 133v52q-66 28 -146 28h-6q-178 0 -178 -137v-4z" />
<glyph unicode="b" horiz-adv-x="1384" d="M104 0v1495h390v-534q141 172 335 172q203 0 345 -154q147 -162 147 -420v-4q0 -260 -145 -424q-140 -156 -345 -156q-168 0 -278 101q-33 29 -59 59v-135h-390zM485 553q0 -104 63 -178t163 -74q104 0 168 76q59 70 59 176v4q0 104 -62.5 177t-164.5 73q-100 0 -163 -74 t-63 -176v-4z" />
<glyph unicode="c" horiz-adv-x="1165" d="M59 549v4q0 250 177 416q169 161 414 161h3q315 0 473 -247l-264 -197q-86 117 -207 117q-96 0 -156.5 -74t-60.5 -172v-4q0 -104 60.5 -178t160.5 -74q111 0 213 115l261 -189q-172 -254 -494 -254q-178 0 -322.5 95.5t-212.5 259.5q-45 104 -45 221z" />
<glyph unicode="d" horiz-adv-x="1384" d="M63 549v4q0 264 146 426q139 154 342 154q201 0 340 -160v522h389v-1495h-389v147q-141 -172 -338 -172q-205 0 -342 154q-147 162 -148 420zM444 553q0 -102 64 -177t164 -75q102 0 166 78q59 72 59 174v4q0 102 -62.5 176t-162.5 74t-164 -75t-64 -175v-4z" />
<glyph unicode="e" horiz-adv-x="1239" d="M59 549v4q0 246 159 413t400 167q272 0 424 -181q135 -166 136 -426v-39q0 -20 -2 -41h-742q45 -182 240 -182q133 0 246 113l215 -178q-177 -226 -482 -226q-186 0 -329 86q-152 90 -220 254q-45 106 -45 236zM428 645h385q-10 88 -59 144.5t-133 56.5q-158 0 -193 -201 z" />
<glyph unicode="f" horiz-adv-x="827" d="M45 797v305h129v24q0 383 383 383q154 0 254 -30v-275q-76 23 -145 23q-111 0 -111 -105v-26h254v-299h-248v-797h-387v797h-129z" />
<glyph unicode="g" horiz-adv-x="1384" d="M63 612v4q0 231 144 379q135 137 336 138q197 0 348 -156v131h389v-842q0 -299 -143 -442q-156 -156 -488 -156q-305 0 -555 127l125 258q193 -104 387 -104q291 0 291 272v43q-145 -166 -342 -166q-221 0 -356.5 147.5t-135.5 366.5zM444 610q0 -96 66 -154.5t162 -58.5 t160.5 59.5t64.5 155.5v4q0 94 -64.5 153.5t-160.5 59.5t-162 -59t-66 -156v-4z" />
<glyph unicode="h" horiz-adv-x="1298" d="M104 0v1495h390v-539q135 176 331 177q182 0 283 -115q94 -106 94 -293v-725h-389v600q0 186 -156 186q-164 0 -163 -186v-600h-390z" />
<glyph unicode="i" horiz-adv-x="614" d="M104 1208v287h406v-287h-406zM113 0v1108h389v-1108h-389z" />
<glyph unicode="j" horiz-adv-x="618" d="M-53 -61q12 -2 24 -2h27q115 0 115 129v1042h389v-1059q0 -205 -99.5 -294t-296.5 -89q-39 0 -159 15v258zM104 1208v287h406v-287h-406z" />
<glyph unicode="k" horiz-adv-x="1234" d="M104 0v1495h390v-758l301 371h440l-385 -444l395 -664h-428l-223 377l-100 -117v-260h-390z" />
<glyph unicode="l" horiz-adv-x="614" d="M113 0v1495h389v-1495h-389z" />
<glyph unicode="m" horiz-adv-x="1988" d="M104 0v1108h390v-152q135 176 329 177q225 0 320 -181q154 180 370 181q184 0 285 -111q94 -106 94 -295v-727h-389v602q0 184 -151 184q-160 0 -160 -184v-602h-389v602q0 184 -152 184q-158 0 -157 -184v-602h-390z" />
<glyph unicode="n" horiz-adv-x="1298" d="M104 0v1108h390v-156q96 125 223 166q49 14 108 15q182 0 283 -115q94 -106 94 -293v-725h-389v600q0 186 -156 186q-164 0 -163 -186v-600h-390z" />
<glyph unicode="o" horiz-adv-x="1343" d="M59 549v4q0 252 185 418q178 162 430 162q184 0 338.5 -94.5t226.5 -258.5q45 -104 45 -223v-4q0 -252 -181 -416t-433 -164q-262 0 -439 170q-172 164 -172 406zM438 553q0 -102 68 -176t168 -74q104 0 167.5 71.5t63.5 174.5v4q0 102 -67.5 176t-167.5 74 q-104 0 -168 -72t-64 -174v-4z" />
<glyph unicode="p" horiz-adv-x="1384" d="M104 -328v1436h390v-147q141 172 335 172q203 0 345 -154q147 -162 147 -420v-4q0 -260 -145 -424q-139 -156 -345 -156q-168 0 -278 101q-33 29 -59 59v-463h-390zM485 553q0 -104 63 -178t163 -74q104 0 168 76q59 70 59 176v4q0 104 -62.5 177t-164.5 73 q-100 0 -163 -74t-63 -176v-4z" />
<glyph unicode="q" horiz-adv-x="1384" d="M63 549v4q0 264 146 426q139 154 342 154q201 0 340 -160v135h389v-1436h-389v475q-141 -172 -338 -172q-205 0 -342 154q-147 162 -148 420zM444 553q0 -102 64 -177t164 -75q102 0 166 78q59 72 59 174v4q0 102 -62.5 176t-162.5 74t-164 -75t-64 -175v-4z" />
<glyph unicode="r" horiz-adv-x="876" d="M104 0v1108h390v-223q102 241 330 241h20v-409h-33q-317 0 -317 -373v-344h-390z" />
<glyph unicode="s" horiz-adv-x="1052" d="M20 139l146 236q193 -127 381 -127q98 0 98 59v4q0 47 -178 95q-186 49 -270 108q-123 88 -123 246v4q0 180 139 280q121 86 305 86q254 0 457 -129l-133 -245q-186 102 -328 102q-90 0 -90 -53v-4q0 -47 180 -99q188 -55 268 -110q125 -88 125 -242v-4 q0 -178 -121.5 -274.5t-330.5 -96.5q-297 0 -525 164z" />
<glyph unicode="t" horiz-adv-x="882" d="M41 795v313h131v281h389v-281h258v-313h-258v-375q0 -111 107 -111q70 0 147 37v-305q-118 -64 -270 -64q-373 0 -373 367v451h-131z" />
<glyph unicode="u" horiz-adv-x="1298" d="M96 383v725h389v-600q0 -186 158 -186q80 0 123 55q39 49 39 131v600h389v-1108h-389v152q-135 -177 -332 -177q-182 0 -283 115q-94 106 -94 293z" />
<glyph unicode="v" horiz-adv-x="1280" d="M20 1108h410l213 -647l213 647h404l-443 -1116h-354z" />
<glyph unicode="w" horiz-adv-x="1763" d="M25 1108h381l145 -557l170 561h321l172 -565l150 561h375l-342 -1116h-336l-180 575l-185 -575h-334z" />
<glyph unicode="x" horiz-adv-x="1206" d="M16 0l373 559l-366 549h419l164 -272l164 272h412l-365 -547l373 -561h-418l-172 285l-174 -285h-410z" />
<glyph unicode="y" horiz-adv-x="1282" d="M23 1108h407l221 -668l209 668h400l-406 -1081q-74 -199 -164 -277q-96 -84 -258 -84q-182 0 -356 96l121 273q98 -59 170 -60q59 0 90 45z" />
<glyph unicode="z" horiz-adv-x="1153" d="M66 0v256l512 543h-494v309h1010v-256l-514 -543h514v-309h-1028z" />
<glyph unicode="{" horiz-adv-x="1003" d="M70 459v258h32q121 0 177 39q66 45 65 162v34l-4 86q-2 18 -2 31q0 174 117 264q127 96 424 131l59 -227q-158 -35 -206 -83t-48 -148q0 -25 3 -72t3 -72q0 -211 -229 -274q229 -63 229 -275q0 -25 -3 -71.5t-3 -71.5q0 -117 74 -168q47 -33 180 -63l-59 -228 q-297 35 -424 131q-117 90 -117 264q0 10 4 74l2 45v33q0 117 -65 162q-55 39 -177 39h-32z" />
<glyph unicode="|" horiz-adv-x="727" d="M215 -262v1896h297v-1896h-297z" />
<glyph unicode="}" horiz-adv-x="1003" d="M66 -61q158 35 208 86q45 45 45 145q0 25 -3 72t-3 71q0 211 230 275q-229 63 -230 274q0 25 3 72t3 72q0 117 -73 168q-47 33 -180 63l59 227q297 -35 424 -131q117 -90 117 -264q0 -10 -2 -74l-2 -43q-2 -23 -3 -34q0 -117 66 -162q55 -39 176 -39h33v-258h-33 q-121 0 -176 -39q-66 -45 -66 -162q0 -12 3 -33l4 -86v-33q0 -174 -117 -264q-127 -96 -424 -131z" />
<glyph unicode="~" horiz-adv-x="1034" d="M84 502q31 137 74 205q66 100 180 100q61 0 260 -68q35 -12 59 -12q63 0 105 94l188 -51q-31 -137 -73 -205q-66 -100 -181 -100q-57 0 -133 22q-63 23 -127 45q-37 12 -61 13q-61 0 -103 -94z" />
<glyph unicode="&#xa1;" horiz-adv-x="663" d="M111 0v174l118 793h205l119 -793v-174h-442zM129 1085v349h406v-349h-406z" />
<glyph unicode="&#xa2;" horiz-adv-x="1177" d="M66 723v4q0 252 170 412q162 156 411 164l25 143h235l-30 -178q168 -61 258 -199l-238 -182q-43 51 -96 82l-94 -516q106 14 194 116l236 -172q-160 -236 -459 -243l-29 -166h-235l35 200q-174 57 -278.5 205t-104.5 330zM403 727q0 -168 115 -240l92 519 q-96 -14 -151.5 -94.5t-55.5 -180.5v-4z" />
<glyph unicode="&#xa3;" horiz-adv-x="1308" d="M90 0v236l154 59v244h-154v278h154v105q0 254 141 395t391 141q293 0 477 -207l-241 -264q-100 117 -209 117q-164 0 -164 -182v-105h442v-278h-442v-226h600v-313h-1149z" />
<glyph unicode="&#xa4;" horiz-adv-x="1396" d="M76 457v213h139q-2 10 -2 22v53q0 12 2 27h-139v213h172q59 221 225 349t391 128q309 0 492 -231l-252 -236q-100 127 -238 127q-154 0 -223 -143h320v-207h-365q-2 -12 -2 -24v-54q0 -12 2 -24h365v-207h-324q74 -152 235 -152q129 0 242 135l246 -231 q-187 -244 -500 -244q-242 0 -407 135q-158 127 -213 351h-166z" />
<glyph unicode="&#xa5;" horiz-adv-x="1449" d="M8 1434h451l270 -471l270 471h443l-428 -650h284v-245h-376v-103h376v-246h-376v-190h-394v190h-376v246h376v103h-376v245h282z" />
<glyph unicode="&#xa7;" horiz-adv-x="1282" d="M86 694v4q0 160 186 226q-96 74 -96 202v4q0 227 266 306q88 25 207 24q305 0 486 -162l-158 -223q-170 121 -336 121q-111 0 -111 -61v-5q0 -49 200 -92t290 -86q176 -80 176 -213v-4q0 -160 -186 -225q96 -74 96 -201v-4q0 -143 -117 -233q-129 -99 -356 -99 q-305 0 -486 162l158 223q170 -121 336 -120q111 0 111 61v4q0 49 -199 92q-221 47 -330 107q-137 72 -137 192zM383 750q0 -53 207 -105q152 -37 203 -37q104 0 104 72v4q0 53 -207 104q-152 37 -203 37q-104 0 -104 -71v-4z" />
<glyph unicode="&#xa8;" d="M119 1202v293h338v-293h-338zM567 1202v293h338v-293h-338z" />
<glyph unicode="&#xa9;" horiz-adv-x="1699" d="M109 713v4q0 309 218 527t525 218t523 -218t216 -523v-4q0 -309 -218 -527.5t-525 -218.5t-523 218.5t-216 523.5zM195 713q0 -276 186 -465q191 -195 467 -195q205 0 366.5 109.5t241.5 298.5q49 121 49 256v4q0 276 -190.5 467.5t-462.5 191.5q-205 0 -366.5 -109.5 t-239.5 -297.5q-51 -121 -51 -256v-4zM449 723v4q0 176 121.5 292t295.5 116q211 0 332 -162l-166 -131q-78 92 -172 92q-84 0 -134 -59.5t-50 -145.5v-4q0 -86 50 -145.5t134 -59.5q96 0 176 94l168 -118q-129 -177 -344 -177q-129 0 -230.5 63.5t-150.5 180.5 q-31 74 -30 160z" />
<glyph unicode="&#xaa;" horiz-adv-x="798" d="M84 553v158h612v-158h-612zM90 999v5q0 190 240 190q86 0 145 -23v9q0 100 -123 100q-80 0 -168 -35l-43 152q111 47 246 47q158 0 234 -76q66 -66 65 -194v-349h-213v66q-69 -78 -178 -78q-92 0 -145 47q-59 49 -60 139zM297 1014q0 -66 74 -66q106 0 106 101v26 q-43 16 -84 17q-96 0 -96 -74v-4z" />
<glyph unicode="&#xab;" horiz-adv-x="1292" d="M61 500v98l328 438l281 -137l-267 -350l267 -348l-281 -140zM592 541v16l360 479l279 -137l-266 -350l266 -348l-279 -140z" />
<glyph unicode="&#xad;" horiz-adv-x="835" d="M82 469v342h672v-342h-672z" />
<glyph unicode="&#xae;" horiz-adv-x="1699" d="M109 713v4q0 309 218 527t525 218t523 -218t216 -523v-4q0 -309 -218 -527.5t-525 -218.5t-523 218.5t-216 523.5zM195 713q0 -276 186 -465q191 -195 467 -195q205 0 366.5 109.5t241.5 298.5q49 121 49 256v4q0 276 -190.5 467.5t-462.5 191.5q-205 0 -366.5 -109.5 t-239.5 -297.5q-51 -121 -51 -256v-4zM524 344v789h367q178 0 266 -89q68 -68 68 -180v-4q0 -174 -162 -242l188 -274h-252l-159 240h-97v-240h-219zM743 754h144q119 0 119 92v4q0 94 -121 94h-142v-190z" />
<glyph unicode="&#xaf;" d="M127 1212v238h770v-238h-770z" />
<glyph unicode="&#xb0;" horiz-adv-x="966" d="M111 1081v4q0 150 112.5 257.5t259.5 107.5q150 0 261.5 -108.5t111.5 -256.5v-4q0 -150 -111.5 -255t-261.5 -105q-152 0 -262 106.5t-110 253.5zM311 1081q0 -74 49 -123t123 -49t123 49.5t49 122.5v4q0 74 -50 124.5t-122 50.5t-122 -51.5t-50 -123.5v-4z" />
<glyph unicode="&#xb1;" horiz-adv-x="1265" d="M33 225l248 244q162 -162 348 -162q76 0 129 31q63 35 63 106v5q0 125 -229 124h-150v299h146q203 0 203 125v4q0 66 -62 99q-49 27 -119 26q-145 0 -286 -155l-246 229q223 262 567 262q238 0 383.5 -108.5t145.5 -274.5v-4q0 -231 -216 -332q252 -86 252 -321v-4 q0 -307 -325 -412q-105 -35 -236 -35q-381 0 -616 254z" />
<glyph unicode="&#xb4;" d="M268 1202l213 379l363 -117l-301 -262h-275z" />
<glyph unicode="&#xb6;" horiz-adv-x="1220" d="M45 936v4q0 250 184 381q160 113 416 113h449v-1434h-400v451h-43q-270 0 -434 124q-172 129 -172 361z" />
<glyph unicode="&#xb7;" horiz-adv-x="581" d="M88 440v400h406v-400h-406z" />
<glyph unicode="&#xb8;" d="M223 -223l189 254h256l-136 -385z" />
<glyph unicode="&#xba;" horiz-adv-x="798" d="M68 1122v4q0 139 100 230q94 88 233 88t234.5 -89t95.5 -225v-4q0 -137 -98.5 -227t-235.5 -90q-139 0 -234 89t-95 224zM104 553v158h590v-158h-590zM276 1126q0 -57 35 -96t90 -39t88 38t33 93v4q0 57 -34.5 97.5t-90.5 40.5q-55 0 -88 -39t-33 -95v-4z" />
<glyph unicode="&#xbb;" horiz-adv-x="1292" d="M61 199l267 350l-267 348l281 139l358 -479v-16l-358 -480zM625 199l266 350l-266 348l278 139l328 -438v-98l-328 -439z" />
<glyph unicode="&#xbf;" horiz-adv-x="1105" d="M45 408v4q0 182 115 288q98 90 284 136l23 131h248l53 -342l-18 -19q-322 -29 -322 -164v-2q0 -113 156 -112q150 0 297 135l206 -270q-215 -216 -532 -216q-227 0 -368.5 116t-141.5 315zM395 1085v349h406v-349h-406z" />
<glyph unicode="&#xc0;" horiz-adv-x="1628" d="M12 0l611 1444h383l610 -1444h-426l-105 256h-553l-102 -256h-418zM401 1792l363 117l213 -379h-275zM649 565h322l-160 408z" />
<glyph unicode="&#xc1;" horiz-adv-x="1628" d="M12 0l611 1444h383l610 -1444h-426l-105 256h-553l-102 -256h-418zM649 565h322l-160 408zM653 1530l213 379l363 -117l-301 -262h-275z" />
<glyph unicode="&#xc2;" horiz-adv-x="1628" d="M12 0l611 1444h383l610 -1444h-426l-105 256h-553l-102 -256h-418zM395 1530l262 338h316l262 -338h-250l-172 125l-172 -125h-246zM649 565h322l-160 408z" />
<glyph unicode="&#xc3;" horiz-adv-x="1628" d="M12 0l611 1444h383l610 -1444h-426l-105 256h-553l-102 -256h-418zM383 1567q29 139 74 207q63 98 180 98q61 0 260 -68q35 -12 59 -12q63 0 105 94l186 -51q-29 -139 -73 -207q-63 -98 -181 -98q-61 0 -258 67q-37 12 -61 13q-63 0 -105 -94zM649 565h322l-160 408z" />
<glyph unicode="&#xc4;" horiz-adv-x="1628" d="M12 0l611 1444h383l610 -1444h-426l-105 256h-553l-102 -256h-418zM422 1530v293h338v-293h-338zM649 565h322l-160 408zM870 1530v293h338v-293h-338z" />
<glyph unicode="&#xc5;" horiz-adv-x="1628" d="M12 0l594 1407q-63 72 -63 158v4q0 106 82 182t190 76q106 0 188 -76t82 -182v-4q0 -86 -63 -158l594 -1407h-426l-105 256h-553l-102 -256h-418zM649 565h322l-160 408zM678 1565q0 -57 40 -96t97 -39q55 0 95 39.5t40 95.5v4q0 55 -40 94t-95 39t-96 -39t-41 -94v-4z " />
<glyph unicode="&#xc6;" horiz-adv-x="2177" d="M-10 0l758 1434h1341v-338h-715v-217h643v-314h-643v-227h725v-338h-1112v256h-463l-133 -256h-401zM684 565h303v543h-24z" />
<glyph unicode="&#xc7;" horiz-adv-x="1495" d="M78 713v4q0 322 219 533.5t537 211.5q211 0 366 -82q141 -78 242 -217l-299 -231q-133 168 -314 168q-154 0 -249 -117q-92 -109 -93 -262v-4q0 -158 94.5 -270.5t247.5 -112.5q176 0 324 174l299 -213q-158 -211 -373 -283q-84 -29 -184 -37l-115 -329l-309 131l160 217 q-254 63 -404 264q-150 195 -149 455z" />
<glyph unicode="&#xc8;" horiz-adv-x="1366" d="M127 0v1434h1153v-338h-760v-217h688v-314h-688v-227h770v-338h-1163zM340 1792l362 117l213 -379h-274z" />
<glyph unicode="&#xc9;" horiz-adv-x="1366" d="M127 0v1434h1153v-338h-760v-217h688v-314h-688v-227h770v-338h-1163zM516 1530l213 379l363 -117l-301 -262h-275z" />
<glyph unicode="&#xca;" horiz-adv-x="1366" d="M127 0v1434h1153v-338h-760v-217h688v-314h-688v-227h770v-338h-1163zM287 1530l262 338h315l262 -338h-249l-172 125l-173 -125h-245z" />
<glyph unicode="&#xcb;" horiz-adv-x="1366" d="M127 0v1434h1153v-338h-760v-217h688v-314h-688v-227h770v-338h-1163zM313 1530v293h338v-293h-338zM762 1530v293h338v-293h-338z" />
<glyph unicode="&#xcc;" horiz-adv-x="669" d="M-84 1792l363 117l213 -379h-275zM135 0v1434h400v-1434h-400z" />
<glyph unicode="&#xcd;" horiz-adv-x="669" d="M135 0v1434h400v-1434h-400zM178 1530l213 379l363 -117l-301 -262h-275z" />
<glyph unicode="&#xce;" horiz-adv-x="669" d="M-86 1530l264 338h316l262 -338h-250l-172 125l-172 -125h-248zM135 0v1434h400v-1434h-400z" />
<glyph unicode="&#xcf;" horiz-adv-x="669" d="M-59 1530v293h340v-293h-340zM135 0v1434h400v-1434h-400zM391 1530v293h338v-293h-338z" />
<glyph unicode="&#xd0;" horiz-adv-x="1669" d="M63 565v314h164v555h553q379 0 598 -199q211 -193 211 -510v-4q0 -346 -246 -543q-223 -178 -571 -178h-545v565h-164zM612 342h174q182 0 289 96.5t107 276.5v4q0 180 -106.5 276.5t-289.5 96.5h-174v-213h244v-314h-244v-223z" />
<glyph unicode="&#xd1;" horiz-adv-x="1607" d="M127 0v1434h371l589 -758v758h394v-1434h-348l-613 786v-786h-393zM373 1567q29 139 73 207q63 98 181 98q61 0 260 -68q35 -12 59 -12q63 0 105 94l186 -51q-29 -139 -74 -207q-63 -98 -180 -98q-61 0 -258 67q-37 12 -61 13q-63 0 -105 -94z" />
<glyph unicode="&#xd2;" horiz-adv-x="1701" d="M78 713v4q0 322 231 536q223 209 543 209q330 0 550 -216t220 -525v-4q0 -322 -231 -537q-224 -209 -543 -209q-330 0 -550 216t-220 526zM418 1792l362 117l213 -379h-274zM485 717q0 -162 104.5 -274.5t262.5 -112.5q160 0 264 114q100 109 101 269v4 q0 160 -105.5 273.5t-263.5 113.5q-160 0 -261.5 -111.5t-101.5 -271.5v-4z" />
<glyph unicode="&#xd3;" horiz-adv-x="1701" d="M78 713v4q0 322 231 536q223 209 543 209q330 0 550 -216t220 -525v-4q0 -322 -231 -537q-224 -209 -543 -209q-330 0 -550 216t-220 526zM485 717q0 -162 104.5 -274.5t262.5 -112.5q160 0 264 114q100 109 101 269v4q0 160 -105.5 273.5t-263.5 113.5 q-160 0 -261.5 -111.5t-101.5 -271.5v-4zM711 1530l213 379l362 -117l-301 -262h-274z" />
<glyph unicode="&#xd4;" horiz-adv-x="1701" d="M78 713v4q0 322 231 536q223 209 543 209q330 0 550 -216t220 -525v-4q0 -322 -231 -537q-224 -209 -543 -209q-330 0 -550 216t-220 526zM432 1526l262 338h316l262 -338h-250l-172 125l-172 -125h-246zM485 717q0 -162 104.5 -274.5t262.5 -112.5q160 0 264 114 q100 109 101 269v4q0 160 -105.5 273.5t-263.5 113.5q-160 0 -261.5 -111.5t-101.5 -271.5v-4z" />
<glyph unicode="&#xd5;" horiz-adv-x="1701" d="M78 713v4q0 322 231 536q223 209 543 209q330 0 550 -216t220 -525v-4q0 -322 -231 -537q-224 -209 -543 -209q-330 0 -550 216t-220 526zM420 1567q29 139 74 207q63 98 180 98q61 0 260 -68q35 -12 59 -12q63 0 105 94l186 -51q-29 -139 -74 -207q-63 -98 -180 -98 q-61 0 -258 67q-37 12 -61 13q-63 0 -105 -94zM485 717q0 -162 104.5 -274.5t262.5 -112.5q160 0 264 114q100 109 101 269v4q0 160 -105.5 273.5t-263.5 113.5q-160 0 -261.5 -111.5t-101.5 -271.5v-4z" />
<glyph unicode="&#xd6;" horiz-adv-x="1701" d="M78 713v4q0 322 231 536q223 209 543 209q330 0 550 -216t220 -525v-4q0 -322 -231 -537q-224 -209 -543 -209q-330 0 -550 216t-220 526zM459 1530v293h338v-293h-338zM485 717q0 -162 104.5 -274.5t262.5 -112.5q160 0 264 114q100 109 101 269v4q0 160 -105.5 273.5 t-263.5 113.5q-160 0 -261.5 -111.5t-101.5 -271.5v-4zM907 1530v293h338v-293h-338z" />
<glyph unicode="&#xd8;" horiz-adv-x="1701" d="M61 -10l205 229q-188 205 -188 494v4q0 322 231 536q223 209 543 209q229 0 405 -108l80 90h301l-202 -232q186 -209 186 -491v-4q0 -322 -231 -537q-224 -209 -543 -209q-225 0 -406 109l-80 -90h-301zM479 717q0 -111 49 -199l486 555q-74 39 -166 39 q-162 0 -265.5 -114.5t-103.5 -276.5v-4zM686 360q78 -38 166 -38q164 0 267.5 114.5t103.5 276.5v4q0 109 -49 198z" />
<glyph unicode="&#xd9;" horiz-adv-x="1552" d="M109 629v805h403v-797q0 -305 264 -305t264 295v807h404v-795q0 -336 -182 -506q-173 -160 -490 -160t-485 160q-178 166 -178 496zM360 1782l363 116l213 -378h-274z" />
<glyph unicode="&#xda;" horiz-adv-x="1552" d="M109 629v805h403v-797q0 -305 264 -305t264 295v807h404v-795q0 -336 -182 -506q-173 -160 -490 -160t-485 160q-178 166 -178 496zM616 1520l213 378l363 -116l-301 -262h-275z" />
<glyph unicode="&#xdb;" horiz-adv-x="1552" d="M109 629v805h403v-797q0 -305 264 -305t264 295v807h404v-795q0 -336 -182 -506q-173 -160 -490 -160t-485 160q-178 166 -178 496zM356 1530l262 338h316l262 -338h-250l-172 125l-172 -125h-246z" />
<glyph unicode="&#xdc;" horiz-adv-x="1552" d="M109 629v805h403v-797q0 -305 264 -305t264 295v807h404v-795q0 -336 -182 -506q-173 -160 -490 -160t-485 160q-178 166 -178 496zM383 1530v293h338v-293h-338zM831 1530v293h338v-293h-338z" />
<glyph unicode="&#xdd;" horiz-adv-x="1480" d="M-4 1434h453l294 -523l297 523h445l-545 -891v-543h-399v537zM575 1526l213 379l363 -117l-301 -262h-275z" />
<glyph unicode="&#xde;" horiz-adv-x="1396" d="M127 0v1434h397v-205h217q276 0 436 -130t160 -368v-4q0 -248 -174 -383q-162 -129 -442 -129h-197v-215h-397zM524 532h189q98 0 157 43q70 49 70 144v4q0 186 -229 186h-187v-377z" />
<glyph unicode="&#xdf;" horiz-adv-x="1300" d="M104 0v981q0 244 144.5 388t413.5 144q231 0 376 -124q135 -117 136 -304v-4q0 -227 -213 -336q188 -61 260 -217q25 -57 24 -131v-4q0 -158 -110 -260q-96 -90 -258 -123q-84 -18 -181 -18q-33 0 -67 2v278q231 12 231 166v4q0 143 -231 166v207q168 86 168 219v4 q0 66 -38 108t-104 42q-164 0 -163 -199v-989h-388z" />
<glyph unicode="&#xe0;" horiz-adv-x="1226" d="M49 317v5q0 180 135 270q115 78 299 78q143 0 267 -43v18q0 180 -222 180q-147 0 -305 -61l-80 274q209 86 449 86q285 0 422 -135q119 -117 119 -352v-637h-385v115q-125 -140 -326 -140q-166 0 -266 91q-106 92 -107 251zM215 1468l363 117l213 -379h-275zM424 340 q0 -121 137 -121q86 0 139.5 49t53.5 133v52q-68 29 -152 28q-178 0 -178 -137v-4z" />
<glyph unicode="&#xe1;" horiz-adv-x="1226" d="M49 317v5q0 180 135 270q115 78 299 78q143 0 267 -43v18q0 180 -222 180q-147 0 -305 -61l-80 274q209 86 449 86q285 0 422 -135q119 -117 119 -352v-637h-385v115q-125 -140 -326 -140q-166 0 -266 91q-106 92 -107 251zM424 340q0 -121 137 -121q86 0 139.5 49 t53.5 133v52q-68 29 -152 28q-178 0 -178 -137v-4zM442 1206l213 379l363 -117l-301 -262h-275z" />
<glyph unicode="&#xe2;" horiz-adv-x="1226" d="M49 317v5q0 180 135 270q115 78 299 78q143 0 267 -43v18q0 180 -222 180q-147 0 -305 -61l-80 274q209 86 449 86q285 0 422 -135q119 -117 119 -352v-637h-385v115q-125 -140 -326 -140q-166 0 -266 91q-106 92 -107 251zM188 1202l263 338h315l262 -338h-250l-172 125 l-172 -125h-246zM424 340q0 -121 137 -121q86 0 139.5 49t53.5 133v52q-68 29 -152 28q-178 0 -178 -137v-4z" />
<glyph unicode="&#xe3;" horiz-adv-x="1226" d="M49 317v5q0 180 135 270q115 78 299 78q143 0 267 -43v18q0 180 -222 180q-147 0 -305 -61l-80 274q209 86 449 86q285 0 422 -135q119 -117 119 -352v-637h-385v115q-125 -140 -326 -140q-166 0 -266 91q-106 92 -107 251zM180 1239q29 139 74 207q63 98 180 98 q61 0 260 -67q35 -12 60 -13q63 0 104 95l186 -52q-29 -139 -73 -207q-63 -98 -180 -98q-61 0 -259 68q-37 12 -61 12q-63 0 -104 -94zM424 340q0 -121 137 -121q86 0 139.5 49t53.5 133v52q-68 29 -152 28q-178 0 -178 -137v-4z" />
<glyph unicode="&#xe4;" horiz-adv-x="1226" d="M49 317v5q0 180 135 270q115 78 299 78q143 0 267 -43v18q0 180 -222 180q-147 0 -305 -61l-80 274q209 86 449 86q285 0 422 -135q119 -117 119 -352v-637h-385v115q-125 -140 -326 -140q-166 0 -266 91q-106 92 -107 251zM215 1206v293h338v-293h-338zM424 340 q0 -121 137 -121q86 0 139.5 49t53.5 133v52q-68 29 -152 28q-178 0 -178 -137v-4zM664 1206v293h337v-293h-337z" />
<glyph unicode="&#xe5;" horiz-adv-x="1226" d="M49 317v5q0 180 135 270q115 78 299 78q143 0 267 -43v18q0 180 -222 180q-147 0 -305 -61l-80 274q209 86 449 86q285 0 422 -135q119 -117 119 -352v-637h-385v115q-125 -140 -326 -140q-166 0 -266 91q-106 92 -107 251zM336 1470v5q0 106 83 182t189 76t189.5 -76 t83.5 -182v-5q0 -104 -83.5 -182t-189.5 -78t-189 78t-83 182zM424 340q0 -121 137 -121q86 0 139.5 49t53.5 133v52q-68 29 -152 28q-178 0 -178 -137v-4zM471 1470q0 -57 40 -96t97 -39t97 39t40 96v5q0 55 -40.5 94t-96.5 39q-55 0 -96 -39t-41 -94v-5z" />
<glyph unicode="&#xe6;" horiz-adv-x="1925" d="M49 317v5q0 180 135 270q115 78 299 78q143 0 267 -43v18q0 180 -222 180q-147 0 -305 -61l-80 274q209 86 449 86q250 0 375 -125q137 133 346 134q264 0 416 -181q135 -166 135 -426q0 -39 -4 -80h-742q49 -182 240 -182q133 0 246 113l215 -178q-176 -225 -480 -226 q-268 0 -434 166q-219 -164 -444 -164q-180 0 -291 86q-121 94 -121 256zM424 340q0 -57 45 -88q39 -29 98 -29q111 0 224 90q-31 72 -39 140q-68 29 -150 28q-178 0 -178 -137v-4zM1114 645h385q-10 88 -57 141q-53 59 -137 60q-160 0 -191 -201z" />
<glyph unicode="&#xe7;" horiz-adv-x="1165" d="M59 549v4q0 250 177 416q170 162 417 161q315 0 473 -247l-264 -197q-86 117 -207 117q-96 0 -156.5 -74t-60.5 -172v-4q0 -104 60.5 -178t160.5 -74q111 0 213 115l261 -189q-154 -225 -418 -250l-117 -331l-309 131l166 225q-178 57 -287 208.5t-109 338.5z" />
<glyph unicode="&#xe8;" horiz-adv-x="1239" d="M59 549v4q0 246 159 413t400 167q272 0 424 -181q135 -166 136 -426v-39q0 -20 -2 -41h-742q45 -182 240 -182q133 0 246 113l215 -178q-177 -226 -482 -226q-186 0 -329 86q-152 90 -220 254q-45 106 -45 236zM199 1468l362 117l213 -379h-274zM428 645h385 q-10 88 -59 144.5t-133 56.5q-158 0 -193 -201z" />
<glyph unicode="&#xe9;" horiz-adv-x="1239" d="M59 549v4q0 246 159 413t400 167q272 0 424 -181q135 -166 136 -426v-39q0 -20 -2 -41h-742q45 -182 240 -182q133 0 246 113l215 -178q-177 -226 -482 -226q-186 0 -329 86q-152 90 -220 254q-45 106 -45 236zM428 645h385q-10 88 -59 144.5t-133 56.5q-158 0 -193 -201 zM467 1206l213 379l362 -117l-301 -262h-274z" />
<glyph unicode="&#xea;" horiz-adv-x="1239" d="M59 549v4q0 246 159 413t400 167q272 0 424 -181q135 -166 136 -426v-39q0 -20 -2 -41h-742q45 -182 240 -182q133 0 246 113l215 -178q-177 -226 -482 -226q-186 0 -329 86q-152 90 -220 254q-45 106 -45 236zM201 1198l262 338h315l262 -338h-249l-173 125l-172 -125 h-245zM428 645h385q-10 88 -59 144.5t-133 56.5q-158 0 -193 -201z" />
<glyph unicode="&#xeb;" horiz-adv-x="1239" d="M59 549v4q0 246 159 413t400 167q272 0 424 -181q135 -166 136 -426v-39q0 -20 -2 -41h-742q45 -182 240 -182q133 0 246 113l215 -178q-177 -226 -482 -226q-186 0 -329 86q-152 90 -220 254q-45 106 -45 236zM227 1202v293h338v-293h-338zM428 645h385 q-10 88 -59 144.5t-133 56.5q-158 0 -193 -201zM676 1202v293h338v-293h-338z" />
<glyph unicode="&#xec;" horiz-adv-x="614" d="M-106 1464l364 117l213 -379h-274zM113 0v1108h389v-1108h-389z" />
<glyph unicode="&#xed;" horiz-adv-x="614" d="M113 0v1108h389v-1108h-389zM150 1202l212 379l363 -117l-301 -262h-274z" />
<glyph unicode="&#xee;" horiz-adv-x="614" d="M-111 1202l263 338h315l262 -338h-250l-172 125l-172 -125h-246zM113 0v1108h389v-1108h-389z" />
<glyph unicode="&#xef;" horiz-adv-x="614" d="M-84 1202v293h338v-293h-338zM113 0v1108h389v-1108h-389zM365 1202v293h337v-293h-337z" />
<glyph unicode="&#xf0;" horiz-adv-x="1343" d="M66 510v4q0 209 143 338q137 125 344 125q131 0 221 -55l-164 219l-235 -90l-133 182l239 82l-131 180h414l43 -61l203 75l131 -182l-211 -72l131 -184q199 -279 199 -536v-5q0 -254 -181 -409q-170 -148 -422 -148q-256 0 -426 156q-166 150 -165 381zM440 510 q0 -92 67 -151.5t159 -59.5q96 0 157.5 57.5t61.5 151.5v4q0 92 -65.5 150.5t-157.5 58.5q-96 0 -159 -56.5t-63 -150.5v-4z" />
<glyph unicode="&#xf1;" horiz-adv-x="1298" d="M104 0v1108h390v-156q96 125 223 166q49 14 108 15q182 0 283 -115q94 -106 94 -293v-725h-389v600q0 186 -156 186q-164 0 -163 -186v-600h-390zM227 1239q29 139 74 207q63 98 180 98q61 0 260 -67q35 -12 60 -13q63 0 104 95l187 -52q-29 -139 -74 -207 q-63 -98 -180 -98q-61 0 -258 68q-37 12 -62 12q-63 0 -104 -94z" />
<glyph unicode="&#xf2;" horiz-adv-x="1343" d="M59 549v4q0 252 185 418q178 162 430 162q184 0 338.5 -94.5t226.5 -258.5q45 -104 45 -223v-4q0 -252 -181 -416t-433 -164q-262 0 -439 170q-172 164 -172 406zM246 1468l362 117l213 -379h-274zM438 553q0 -102 68 -176t168 -74q104 0 167.5 71.5t63.5 174.5v4 q0 102 -67.5 176t-167.5 74q-104 0 -168 -72t-64 -174v-4z" />
<glyph unicode="&#xf3;" horiz-adv-x="1343" d="M59 549v4q0 252 185 418q178 162 430 162q184 0 338.5 -94.5t226.5 -258.5q45 -104 45 -223v-4q0 -252 -181 -416t-433 -164q-262 0 -439 170q-172 164 -172 406zM438 553q0 -102 68 -176t168 -74q104 0 167.5 71.5t63.5 174.5v4q0 102 -67.5 176t-167.5 74 q-104 0 -168 -72t-64 -174v-4zM522 1206l213 379l363 -117l-301 -262h-275z" />
<glyph unicode="&#xf4;" horiz-adv-x="1343" d="M59 549v4q0 252 185 418q178 162 430 162q184 0 338.5 -94.5t226.5 -258.5q45 -104 45 -223v-4q0 -252 -181 -416t-433 -164q-262 0 -439 170q-172 164 -172 406zM252 1198l262 338h315l263 -338h-250l-172 125l-172 -125h-246zM438 553q0 -102 68 -176t168 -74 q104 0 167.5 71.5t63.5 174.5v4q0 102 -67.5 176t-167.5 74q-104 0 -168 -72t-64 -174v-4z" />
<glyph unicode="&#xf5;" horiz-adv-x="1343" d="M59 549v4q0 252 185 418q178 162 430 162q184 0 338.5 -94.5t226.5 -258.5q45 -104 45 -223v-4q0 -252 -181 -416t-433 -164q-262 0 -439 170q-172 164 -172 406zM240 1239q29 139 73 207q63 98 181 98q61 0 260 -67q35 -12 59 -13q63 0 105 95l186 -52 q-29 -139 -74 -207q-63 -98 -180 -98q-61 0 -258 68q-37 12 -62 12q-63 0 -104 -94zM438 553q0 -102 68 -176t168 -74q104 0 167.5 71.5t63.5 174.5v4q0 102 -67.5 176t-167.5 74q-104 0 -168 -72t-64 -174v-4z" />
<glyph unicode="&#xf6;" horiz-adv-x="1343" d="M59 549v4q0 252 185 418q178 162 430 162q184 0 338.5 -94.5t226.5 -258.5q45 -104 45 -223v-4q0 -252 -181 -416t-433 -164q-262 0 -439 170q-172 164 -172 406zM279 1202v293h337v-293h-337zM438 553q0 -102 68 -176t168 -74q104 0 167.5 71.5t63.5 174.5v4 q0 102 -67.5 176t-167.5 74q-104 0 -168 -72t-64 -174v-4zM727 1202v293h338v-293h-338z" />
<glyph unicode="&#xf8;" horiz-adv-x="1343" d="M29 -10l170 188q-139 162 -140 371v4q0 252 185 418q178 162 430 162q170 0 309 -78l59 63h273q-78 -82 -125 -139q-29 -33 -45 -49q139 -162 139 -373v-4q0 -252 -181 -416t-433 -164q-168 0 -312 78l-57 -61h-272zM422 553q0 -57 20 -107l320 355q-41 18 -92 18 q-109 0 -178.5 -76.5t-69.5 -185.5v-4zM584 303q43 -16 90 -16q109 0 178.5 76.5t69.5 185.5v4q0 57 -21 106z" />
<glyph unicode="&#xf9;" horiz-adv-x="1298" d="M96 383v725h389v-600q0 -186 158 -186q80 0 123 55q39 49 39 131v600h389v-1108h-389v152q-135 -177 -332 -177q-182 0 -283 115q-94 106 -94 293zM256 1464l362 117l213 -379h-274z" />
<glyph unicode="&#xfa;" horiz-adv-x="1298" d="M96 383v725h389v-600q0 -186 158 -186q80 0 123 55q39 49 39 131v600h389v-1108h-389v152q-135 -177 -332 -177q-182 0 -283 115q-94 106 -94 293zM467 1202l213 379l362 -117l-301 -262h-274z" />
<glyph unicode="&#xfb;" horiz-adv-x="1298" d="M96 383v725h389v-600q0 -186 158 -186q80 0 123 55q39 49 39 131v600h389v-1108h-389v152q-135 -177 -332 -177q-182 0 -283 115q-94 106 -94 293zM229 1202l263 338h315l262 -338h-250l-172 125l-172 -125h-246z" />
<glyph unicode="&#xfc;" horiz-adv-x="1298" d="M96 383v725h389v-600q0 -186 158 -186q80 0 123 55q39 49 39 131v600h389v-1108h-389v152q-135 -177 -332 -177q-182 0 -283 115q-94 106 -94 293zM256 1202v293h338v-293h-338zM705 1202v293h337v-293h-337z" />
<glyph unicode="&#xfd;" horiz-adv-x="1282" d="M23 1108h407l221 -668l209 668h400l-406 -1081q-74 -199 -164 -277q-96 -84 -258 -84q-182 0 -356 96l121 273q98 -59 170 -60q59 0 90 45zM463 1202l213 379l362 -117l-301 -262h-274z" />
<glyph unicode="&#xfe;" horiz-adv-x="1384" d="M104 -328v1823h390v-534q141 172 335 172q203 0 345 -154q147 -162 147 -420v-4q0 -260 -145 -424q-139 -156 -345 -156q-168 0 -278 101q-33 29 -59 59v-463h-390zM485 553q0 -104 63 -178t163 -74q104 0 168 76q59 70 59 176v4q0 104 -62.5 177t-164.5 73 q-100 0 -163 -74t-63 -176v-4z" />
<glyph unicode="&#xff;" horiz-adv-x="1282" d="M23 1108h407l221 -668l209 668h400l-406 -1081q-74 -199 -164 -277q-96 -84 -258 -84q-182 0 -356 96l121 273q98 -59 170 -60q59 0 90 45zM246 1202v293h338v-293h-338zM694 1202v293h338v-293h-338z" />
<glyph unicode="&#x152;" horiz-adv-x="2207" d="M78 709v4q0 240 124 413.5t347 253.5q152 53 346 54h1225v-338h-715v-217h643v-314h-643v-227h725v-338h-1243q-375 0 -596 199q-213 193 -213 510zM485 715q0 -174 111 -273q104 -96 281 -96h135v741h-135q-178 0 -283 -96q-109 -102 -109 -272v-4z" />
<glyph unicode="&#x153;" horiz-adv-x="2074" d="M59 549v4q0 248 183 416q176 164 422 164q252 0 409 -166q154 166 387 166q266 0 418 -181q135 -166 135 -426q0 -39 -4 -80h-739q45 -182 237 -182q135 0 248 113l215 -178q-180 -225 -475 -226q-264 0 -426 166q-162 -166 -414 -166q-182 0 -329.5 94.5t-219.5 258.5 q-47 104 -47 223zM438 553q0 -100 66 -175t164 -75q102 0 164.5 71.5t62.5 174.5v4q0 102 -66.5 176t-164.5 74t-162 -73t-64 -173v-4zM1264 645h385q-10 88 -59.5 144.5t-133.5 56.5q-158 0 -192 -201z" />
<glyph unicode="&#x178;" horiz-adv-x="1480" d="M-4 1434h453l294 -523l297 523h445l-545 -891v-543h-399v537zM348 1530v293h338v-293h-338zM797 1530v293h338v-293h-338z" />
<glyph unicode="&#x2c6;" d="M92 1202l262 338h316l262 -338h-250l-172 125l-172 -125h-246z" />
<glyph unicode="&#x2dc;" d="M80 1239q29 139 74 207q63 98 180 98q61 0 260 -67q35 -12 59 -13q63 0 105 95l186 -52q-29 -139 -74 -207q-63 -98 -180 -98q-61 0 -258 68q-37 12 -61 12q-63 0 -105 -94z" />
<glyph unicode="&#x2000;" horiz-adv-x="954" />
<glyph unicode="&#x2001;" horiz-adv-x="1909" />
<glyph unicode="&#x2002;" horiz-adv-x="954" />
<glyph unicode="&#x2003;" horiz-adv-x="1909" />
<glyph unicode="&#x2004;" horiz-adv-x="636" />
<glyph unicode="&#x2005;" horiz-adv-x="477" />
<glyph unicode="&#x2006;" horiz-adv-x="318" />
<glyph unicode="&#x2007;" horiz-adv-x="318" />
<glyph unicode="&#x2008;" horiz-adv-x="238" />
<glyph unicode="&#x2009;" horiz-adv-x="381" />
<glyph unicode="&#x200a;" horiz-adv-x="106" />
<glyph unicode="&#x2010;" horiz-adv-x="835" d="M82 469v342h672v-342h-672z" />
<glyph unicode="&#x2011;" horiz-adv-x="835" d="M82 469v342h672v-342h-672z" />
<glyph unicode="&#x2012;" horiz-adv-x="835" d="M82 469v342h672v-342h-672z" />
<glyph unicode="&#x2013;" horiz-adv-x="1081" d="M82 473v334h917v-334h-917z" />
<glyph unicode="&#x2014;" horiz-adv-x="1839" d="M82 473v334h1675v-334h-1675z" />
<glyph unicode="&#x2018;" horiz-adv-x="581" d="M82 702v326q0 217 115 320q98 88 305 96l33 -150q-213 -25 -205 -192h155v-400h-403z" />
<glyph unicode="&#x2019;" horiz-adv-x="581" d="M47 842q213 20 205 192h-156v400h404v-326q0 -217 -109.5 -314.5t-310.5 -101.5z" />
<glyph unicode="&#x201a;" horiz-adv-x="581" d="M41 -193q211 25 205 193h-158v399h406v-325q0 -219 -115 -320q-106 -92 -307 -96z" />
<glyph unicode="&#x201c;" horiz-adv-x="1120" d="M82 702v326q0 215 113 315q100 92 303 101l30 -150q-209 -25 -198 -192h151v-400h-399zM625 702v326q0 211 112 315q98 92 303 101l33 -150q-207 -25 -201 -192h152v-400h-399z" />
<glyph unicode="&#x201d;" horiz-adv-x="1120" d="M47 842q207 23 201 192h-152v400h400v-326q0 -217 -107.5 -314.5t-308.5 -101.5zM592 842q207 23 201 192h-154v400h399v-326q0 -217 -107.5 -314.5t-305.5 -101.5z" />
<glyph unicode="&#x201e;" horiz-adv-x="1118" d="M41 -193q209 25 199 193h-152v399h399v-325q0 -217 -107.5 -314.5t-307.5 -101.5zM586 -193q209 25 198 193h-151v399h399v-325q0 -217 -107.5 -314.5t-308.5 -101.5z" />
<glyph unicode="&#x2022;" d="M166 719v4q0 143 102.5 243.5t243.5 100.5q143 0 244.5 -101.5t101.5 -242.5v-4q0 -143 -102.5 -243.5t-243.5 -100.5q-143 0 -244.5 101.5t-101.5 242.5z" />
<glyph unicode="&#x2026;" horiz-adv-x="1720" d="M88 0v393h397v-393h-397zM662 0v393h397v-393h-397zM1235 0v393h397v-393h-397z" />
<glyph unicode="&#x202f;" horiz-adv-x="381" />
<glyph unicode="&#x2039;" horiz-adv-x="731" d="M61 500v98l328 438l281 -137l-267 -350l267 -348l-281 -140z" />
<glyph unicode="&#x203a;" horiz-adv-x="731" d="M61 199l267 350l-267 348l281 139l328 -438v-98l-328 -439z" />
<glyph unicode="&#x205f;" horiz-adv-x="477" />
<glyph unicode="&#x2122;" horiz-adv-x="1423" d="M33 1280v154h553v-154h-189v-477h-176v477h-188zM684 803v631h186l150 -244l151 244h185v-631h-174v368l-160 -249h-6l-160 249v-368h-172z" />
<glyph unicode="&#x25fc;" horiz-adv-x="1105" d="M0 0v1106h1106v-1106h-1106z" />
</font>
</defs>
</svg>
