<?xml version="1.0" standalone="no"?>
<!DOCTYPE svg PUBLIC "-//W3C//DTD SVG 1.1//EN" "http://www.w3.org/Graphics/SVG/1.1/DTD/svg11.dtd" >
<svg xmlns="http://www.w3.org/2000/svg">
<metadata></metadata>
<defs>
<font id="sansboldregular" horiz-adv-x="1617" >
<font-face units-per-em="2048" ascent="1638" descent="-410" />
<missing-glyph horiz-adv-x="614" />
<glyph horiz-adv-x="2048" />
<glyph horiz-adv-x="2048" />
<glyph unicode="&#xd;" horiz-adv-x="614" />
<glyph unicode=" "  horiz-adv-x="614" />
<glyph unicode="&#x09;" horiz-adv-x="614" />
<glyph unicode="&#xa0;" horiz-adv-x="614" />
<glyph unicode="!" horiz-adv-x="663" d="M150 1434h364v-41l-96 -906h-172zM166 0v328h332v-328h-332z" />
<glyph unicode="&#x22;" horiz-adv-x="1064" d="M117 780l37 654h344v-11l-224 -643h-157zM600 780l37 654h344v-11l-223 -643h-158z" />
<glyph unicode="#" horiz-adv-x="1433" d="M72 307v262h200l52 303h-181v263h226l51 299h270l-51 -299h297l51 299h270l-51 -299h156v-263h-201l-51 -303h180v-262h-225l-53 -307h-271l54 307h-297l-54 -307h-270l53 307h-155zM543 569h297l51 303h-297z" />
<glyph unicode="$" horiz-adv-x="1323" d="M90 201l160 233q178 -135 334 -166v326q-236 66 -330 156q-111 102 -111 278v4q0 180 131 287q115 94 299 115v118h213v-122q211 -31 381 -152l-137 -240q-137 92 -254 121v-309q209 -57 311 -141q133 -111 134 -299v-4q0 -178 -134 -289q-117 -96 -301 -115v-203h-213 v207q-270 33 -483 195zM442 1047q0 -94 142 -146v277q-141 -20 -142 -127v-4zM776 258q145 23 146 131v4q0 98 -146 152v-287z" />
<glyph unicode="%" horiz-adv-x="1761" d="M92 1079v4q0 156 99.5 261.5t250.5 105.5q154 0 250 -105.5t96 -257.5v-4q0 -156 -99 -261t-251 -105q-154 0 -250 105.5t-96 256.5zM236 0l1046 1434h244l-1047 -1434h-243zM307 1083q0 -68 33 -120q36 -60 102 -60t101 58q31 49 30 118v4q0 68 -34.5 124.5t-100.5 56.5 q-68 0 -102 -58q-29 -47 -29 -119v-4zM973 346v4q0 156 99 261.5t251 105.5q154 0 250 -105.5t96 -257.5v-4q0 -156 -99 -261t-251 -105q-154 0 -250 105.5t-96 256.5zM1188 350q0 -68 33 -121q36 -59 102 -59t100 57q31 49 31 119v4q0 68 -35 124t-100 56q-68 0 -102 -57 q-29 -47 -29 -119v-4z" />
<glyph unicode="&#x26;" horiz-adv-x="1425" d="M70 393v4q0 266 278 394q-100 139 -100 286v4q0 121 67.5 211t182.5 135q80 31 184 31q180 0 291.5 -103.5t111.5 -256.5v-4q0 -256 -301 -375l191 -191q55 88 139 246l232 -127q-98 -182 -189 -303l211 -211l-231 -162l-166 168q-197 -160 -420 -159q-211 0 -342 112 q-139 115 -139 301zM387 406q0 -80 62 -127q55 -41 139 -41q102 0 207 81l-275 279q-133 -68 -133 -188v-4zM537 1063q0 -82 84 -178q190 70 190 190v4q0 61 -37 97t-98 36q-63 0 -101 -39.5t-38 -105.5v-4z" />
<glyph unicode="'" horiz-adv-x="585" d="M117 780l37 654h348v-11l-223 -643h-162z" />
<glyph unicode="(" horiz-adv-x="911" d="M121 588q0 571 567 876l137 -207q-309 -213 -372 -469q-23 -92 -23 -200q0 -225 107 -391q90 -143 288 -279l-137 -207q-567 305 -567 877z" />
<glyph unicode=")" horiz-adv-x="911" d="M86 -82q309 213 373 471q23 90 22 199q0 225 -106 391q-90 143 -289 278l137 207q567 -305 568 -876q0 -571 -568 -877z" />
<glyph unicode="*" horiz-adv-x="880" d="M104 1004l230 96l-230 96l86 147l199 -151l-33 246h168l-32 -246l198 151l86 -147l-229 -96l229 -96l-86 -148l-198 152l32 -246h-168l33 246l-199 -152z" />
<glyph unicode="+" horiz-adv-x="1310" d="M139 580v282h371v369h291v-369h370v-282h-370v-369h-291v369h-371z" />
<glyph unicode="," horiz-adv-x="585" d="M53 -203q217 23 201 203h-127v328h332v-277q0 -379 -379 -383z" />
<glyph unicode="-" horiz-adv-x="835" d="M102 485v299h631v-299h-631z" />
<glyph unicode="." horiz-adv-x="585" d="M127 0v328h332v-328h-332z" />
<glyph unicode="/" horiz-adv-x="1085" d="M-57 -262l907 1896h264l-907 -1896h-264z" />
<glyph unicode="0" horiz-adv-x="1495" d="M111 713v4q0 315 178 528t461 213q295 0 473 -229q162 -209 161 -508v-4q0 -315 -178 -528.5t-461 -213.5q-299 0 -475 228q-160 207 -159 510zM434 717q0 -311 187 -422q57 -35 129 -35q113 0 190 84q70 72 100 188q20 82 21 181v4q0 199 -88 328t-228 129 q-215 0 -288 -271q-23 -84 -23 -182v-4z" />
<glyph unicode="1" horiz-adv-x="864" d="M49 1321l412 123h215v-1444h-311v1124l-250 -61z" />
<glyph unicode="2" horiz-adv-x="1275" d="M100 0v250l478 391q72 59 102 86q55 51 90 98q55 74 55 160q0 186 -192 186q-88 0 -168 -61q-49 -39 -125 -131l-221 178q117 158 229 223q127 74 305 74q221 0 357.5 -121t136.5 -321v-4q0 -180 -117 -324q-68 -82 -260 -231l-233 -181h624v-272h-1061z" />
<glyph unicode="3" horiz-adv-x="1271" d="M78 223l217 207q152 -172 346 -172q86 0 144.5 45t58.5 129v4q0 182 -281 182h-131l-49 201l342 344h-563v271h968v-238l-362 -346q385 -63 385 -401v-5q0 -221 -154 -350q-141 -119 -362 -119q-352 0 -559 248z" />
<glyph unicode="4" horiz-adv-x="1411" d="M63 532l787 912h266v-879h193v-256h-193v-309h-301v309h-700zM434 565h381v447z" />
<glyph unicode="5" horiz-adv-x="1290" d="M88 190l191 228q172 -156 342 -156q240 0 239 199v4q0 98 -80 151q-70 43 -174 43q-119 0 -239 -53l-183 121l41 707h881v-277h-610l-17 -248q102 25 189 25q231 0 366 -119t135 -340v-4q0 -238 -159 -371q-147 -125 -385 -125q-313 0 -537 215z" />
<glyph unicode="6" horiz-adv-x="1355" d="M111 672v4q0 350 153 557q168 225 475 225q201 0 353 -90q49 -31 96 -68l-166 -243q-150 115 -293 114q-250 0 -289 -331q141 92 297 92q221 0 359 -117q145 -123 145 -340v-4q0 -227 -166 -367q-154 -129 -381 -129q-260 0 -413 154q-170 170 -170 543zM432 459 q0 -102 76 -160q68 -53 174 -53t172 51q74 57 74 160v4q0 102 -76 157q-68 51 -174 52q-106 0 -172 -49q-74 -55 -74 -158v-4z" />
<glyph unicode="7" horiz-adv-x="1267" d="M139 1161v273h1032v-238l-643 -1196h-356l641 1161h-674z" />
<glyph unicode="8" horiz-adv-x="1290" d="M92 393v4q0 240 232 346q-182 111 -183 314v4q0 131 88 229q78 90 209 133q92 31 207 31q221 0 367 -113q137 -109 137 -280v-4q0 -203 -182 -314q231 -123 231 -337v-5q0 -150 -96 -256q-88 -94 -236 -137q-102 -28 -221 -28q-242 0 -397.5 114.5t-155.5 298.5zM397 418 q0 -90 84 -137q68 -41 164 -41t166 39q82 49 82 139v4q0 92 -82 137q-68 39 -166 39t-166 -39q-82 -45 -82 -137v-4zM440 1024q0 -84 59.5 -130t145.5 -46t145.5 45t59.5 129v4q0 80 -66 127q-57 41 -139 41t-139 -41q-66 -45 -66 -125v-4z" />
<glyph unicode="9" horiz-adv-x="1355" d="M115 952v4q0 229 164 371q154 131 383 131q258 0 413 -155q125 -125 158 -351q12 -84 12 -190v-4q0 -356 -160 -565q-168 -218 -467 -218q-264 0 -471 170l166 240q152 -123 314 -123q254 0 291 326q-117 -98 -291 -99q-233 0 -372.5 123t-139.5 340zM428 967 q0 -104 74 -162q67 -53 176 -53q104 0 175 55t71 158v4q0 106 -76 166q-68 53 -176 53q-106 0 -172 -53q-72 -59 -72 -164v-4z" />
<glyph unicode=":" horiz-adv-x="606" d="M137 0v328h332v-328h-332zM137 770v328h332v-328h-332z" />
<glyph unicode=";" horiz-adv-x="606" d="M63 -203q217 23 201 203h-127v328h332v-277q0 -379 -379 -383zM137 770v328h332v-328h-332z" />
<glyph unicode="&#x3c;" horiz-adv-x="1310" d="M139 580v282l991 434v-288l-692 -285l692 -285v-293z" />
<glyph unicode="=" horiz-adv-x="1310" d="M170 313v283h971v-283h-971zM170 846v282h971v-282h-971z" />
<glyph unicode="&#x3e;" horiz-adv-x="1310" d="M180 145v289l692 285l-692 285v292l991 -434v-282z" />
<glyph unicode="?" horiz-adv-x="1114" d="M41 1231q203 221 502 221q225 0 358 -109q137 -115 137 -315v-4q0 -180 -116 -287q-98 -88 -287 -125l-23 -125h-209l-47 332l11 10q358 14 358 187v4q0 145 -188 145q-166 0 -308 -141zM336 0v328h332v-328h-332z" />
<glyph unicode="@" horiz-adv-x="2007" d="M109 561q0 373 263 635t634 262q262 0 488 -137t337 -369q68 -147 67 -305q0 -248 -118 -385q-111 -129 -289 -129q-207 0 -313 123q-139 -123 -304 -123q-170 0 -272 112.5t-102 282.5q0 152 75.5 281t210.5 195q82 39 172 38q182 0 283 -139l23 109l241 -39l-96 -551 q-6 -35 -6 -64q0 -61 43 -95t106 -34q176 0 240 238q20 78 20 180q0 289 -229 508q-238 221 -577 221q-250 0 -453 -134t-297 -363q-61 -150 -61 -318q0 -352 239.5 -581.5t587.5 -229.5q264 0 502 137l41 -65q-254 -154 -543 -154q-387 0 -650 260t-263 633zM754 543 q0 -92 51 -145.5t141 -53.5q78 0 137.5 51t87.5 127q18 53 19 117q0 86 -52.5 139t-138.5 53q-98 0 -171.5 -81.5t-73.5 -206.5z" />
<glyph unicode="A" d="M49 0l615 1444h290l615 -1444h-330l-131 322h-606l-131 -322h-322zM614 600h381l-190 465z" />
<glyph unicode="B" horiz-adv-x="1478" d="M172 0v1434h666q197 0 325 -86q147 -98 148 -285v-4q0 -211 -189 -309q268 -100 269 -353v-4q0 -291 -316 -368q-100 -25 -221 -25h-682zM479 276h375q223 0 223 156v4q0 156 -233 156h-365v-316zM479 854h291q227 0 227 152v4q0 147 -206 147h-312v-303z" />
<glyph unicode="C" horiz-adv-x="1511" d="M109 713v4q0 319 216 530t531 211q274 0 459 -131q57 -41 106 -90l-200 -231q-179 161 -365 161h-2q-182 0 -303 -135q-113 -129 -113 -311v-4q0 -186 117 -318.5t299 -132.5q197 0 377 168l201 -203q-127 -137 -265.5 -196.5t-322.5 -59.5q-229 0 -411.5 120t-268.5 329 q-55 135 -55 289z" />
<glyph unicode="D" horiz-adv-x="1601" d="M172 0v1434h559q334 0 551 -205q211 -201 211 -508v-4q0 -322 -225 -522q-217 -195 -537 -195h-559zM487 285h244q197 0 314.5 120.5t117.5 307.5v4q0 193 -120.5 312.5t-311.5 119.5h-244v-864z" />
<glyph unicode="E" horiz-adv-x="1372" d="M172 0v1434h1081v-281h-768v-291h676v-280h-676v-301h779v-281h-1092z" />
<glyph unicode="F" horiz-adv-x="1343" d="M172 0v1434h1092v-287h-777v-305h684v-287h-684v-555h-315z" />
<glyph unicode="G" horiz-adv-x="1605" d="M109 713v4q0 317 219 529t532 212q266 0 449 -112q59 -37 114 -84l-198 -240q-172 145 -375 145q-127 0 -229.5 -76.5t-149.5 -195.5q-33 -82 -33 -174v-4q0 -197 122 -326t312 -129q176 0 297 86v205h-317v272h623v-622q-267 -228 -613 -228q-332 0 -542.5 208 t-210.5 530z" />
<glyph unicode="H" horiz-adv-x="1556" d="M172 0v1434h315v-568h582v568h315v-1434h-315v575h-582v-575h-315z" />
<glyph unicode="I" horiz-adv-x="688" d="M186 0v1434h316v-1434h-316z" />
<glyph unicode="J" horiz-adv-x="1155" d="M29 195l198 221q131 -143 262 -144q193 0 193 238v924h324v-938q0 -248 -134 -382t-374 -134q-289 0 -469 215z" />
<glyph unicode="K" horiz-adv-x="1495" d="M172 0v1434h315v-627l582 627h381l-584 -609l611 -825h-379l-445 610l-166 -172v-438h-315z" />
<glyph unicode="L" horiz-adv-x="1267" d="M172 0v1434h315v-1147h715v-287h-1030z" />
<glyph unicode="M" horiz-adv-x="1777" d="M172 0v1434h340l377 -607l377 607h340v-1434h-314v936l-403 -612h-8l-400 606v-930h-309z" />
<glyph unicode="N" d="M172 0v1434h291l672 -883v883h311v-1434h-268l-695 911v-911h-311z" />
<glyph unicode="O" horiz-adv-x="1740" d="M109 713v4q0 319 223 530t540 211q233 0 424 -119.5t281 -328.5q55 -135 55 -289v-4q0 -319 -223.5 -530.5t-540.5 -211.5q-233 0 -423.5 120t-278.5 331q-57 133 -57 287zM438 717q0 -190 124 -320.5t310 -130.5q188 0 309.5 130t121.5 317v4q0 188 -124 319t-311 131 q-188 0 -309 -130t-121 -316v-4z" />
<glyph unicode="P" horiz-adv-x="1368" d="M172 0v1434h586q254 0 401.5 -136.5t147.5 -359.5v-4q0 -242 -168 -377q-160 -127 -412 -127h-240v-430h-315zM487 711h250q106 0 174 55q76 57 76 162v4q0 217 -256 217h-244v-438z" />
<glyph unicode="Q" horiz-adv-x="1740" d="M109 713v4q0 319 223 530t540 211q233 0 424 -119.5t281 -328.5q55 -135 55 -289v-4q0 -225 -127 -412l148 -125l-201 -223l-158 141q-190 -123 -426 -123q-233 0 -423.5 120t-278.5 331q-57 133 -57 287zM438 717q0 -190 124 -320.5t310 -130.5q100 0 189 39l-234 199 l201 225l236 -213q39 86 39 197v4q0 188 -124 319t-311 131q-188 0 -309 -130t-121 -316v-4z" />
<glyph unicode="R" horiz-adv-x="1480" d="M172 0v1434h655q242 0 385 -115q156 -125 156 -358v-5q0 -330 -307 -444l350 -512h-369l-307 459h-248v-459h-315zM487 737h320q106 0 170 47q72 53 72 156v4q0 205 -248 205h-314v-412z" />
<glyph unicode="S" horiz-adv-x="1310" d="M74 209l186 223q215 -174 428 -174q207 0 207 135v4q0 88 -141 140q-117 31 -344 102q-279 104 -279 379v4q0 207 154 326q139 106 348 106q303 0 532 -182l-164 -238q-207 141 -372 142q-184 0 -185 -125v-4q0 -63 50 -101q33 -23 108 -45q117 -31 346 -106 q260 -111 260 -367v-4q0 -209 -145 -326.5t-381 -117.5q-354 0 -608 229z" />
<glyph unicode="T" horiz-adv-x="1327" d="M70 1143v291h1187v-291h-436v-1143h-315v1143h-436z" />
<glyph unicode="U" horiz-adv-x="1548" d="M150 614v820h315v-811q0 -354 309 -355q309 0 309 344v822h316v-809q0 -319 -170 -486q-162 -162 -459 -162q-303 0 -461.5 166t-158.5 471z" />
<glyph unicode="V" horiz-adv-x="1536" d="M49 1434h348l375 -1010l375 1010h340l-580 -1444h-278z" />
<glyph unicode="W" horiz-adv-x="2297" d="M61 1434h338l297 -971l322 975h270l322 -975l297 971h329l-489 -1444h-274l-324 938l-324 -938h-274z" />
<glyph unicode="X" horiz-adv-x="1499" d="M63 0l500 729l-479 705h369l301 -465l303 465h358l-479 -701l500 -733h-369l-322 492l-323 -492h-359z" />
<glyph unicode="Y" horiz-adv-x="1466" d="M25 1434h368l342 -576l348 576h359l-551 -863v-571h-316v565z" />
<glyph unicode="Z" horiz-adv-x="1449" d="M129 0v240l789 917h-764v277h1169v-240l-788 -918h788v-276h-1194z" />
<glyph unicode="[" horiz-adv-x="952" d="M170 -266v1700h661v-244h-362v-1213h362v-243h-661z" />
<glyph unicode="\" horiz-adv-x="1085" d="M-29 1634h265l907 -1896h-264z" />
<glyph unicode="]" horiz-adv-x="952" d="M121 -23h362v1213h-362v244h661v-1700h-661v243z" />
<glyph unicode="^" horiz-adv-x="1024" d="M102 1010l304 424h212l304 -424h-226l-186 239l-186 -239h-222z" />
<glyph unicode="_" horiz-adv-x="1228" d="M-4 -90h1237v-238h-1237v238z" />
<glyph unicode="`" horiz-adv-x="1024" d="M225 1464l269 117l231 -362h-238z" />
<glyph unicode="a" horiz-adv-x="1212" d="M74 315v4q0 172 125 265q115 86 317 86q137 0 268 -45v18q0 201 -235 201q-145 0 -303 -60l-78 238q205 88 426 88q248 0 368.5 -121t120.5 -352v-637h-301v119q-124 -139 -331 -139q-164 0 -270.5 89t-106.5 246zM375 328q0 -133 170 -133q100 0 166 45q78 53 77 147v55 q-90 41 -198 41q-215 0 -215 -151v-4z" />
<glyph unicode="b" horiz-adv-x="1382" d="M139 0v1495h312v-555q131 178 342 178q158 0 278.5 -88t179.5 -235q41 -106 41 -244v-4q0 -260 -151 -420q-139 -147 -348 -147q-205 0 -342 163v-143h-312zM446 547q0 -92 41 -166q43 -80 123 -115q48 -22 103 -22q178 0 248 178q20 55 20 125v4q0 209 -164 283 q-49 20 -104 20q-121 0 -197 -94q-70 -86 -70 -209v-4z" />
<glyph unicode="c" horiz-adv-x="1169" d="M86 543v4q0 246 167 408.5t409 162.5q272 0 438 -184l-191 -205q-117 121 -250 121q-119 0 -192.5 -89t-73.5 -210v-4q0 -129 77 -216t202 -87q127 0 252 116l182 -184q-183 -201 -449 -201q-176 0 -318 93.5t-210 255.5q-43 102 -43 219z" />
<glyph unicode="d" horiz-adv-x="1382" d="M90 547v4q0 260 154 422q137 145 346 145q203 0 342 -164v541h311v-1495h-311v158q-131 -178 -342 -178q-158 0 -279 88t-178 237q-43 104 -43 242zM401 547q0 -209 166 -281q48 -22 103 -22q121 0 196 94q70 86 70 209v4q0 92 -42 169t-120 114q-49 20 -104 20 q-178 0 -246 -178q-23 -55 -23 -125v-4z" />
<glyph unicode="e" horiz-adv-x="1255" d="M86 543v4q0 240 153.5 405.5t389.5 165.5q258 0 405 -180q129 -164 129 -416q0 -37 -4 -82h-764q45 -215 269 -215q141 0 266 113l178 -158q-166 -205 -449 -205q-250 0 -411.5 159t-161.5 409zM391 635h469q-33 233 -231 233q-197 0 -238 -233z" />
<glyph unicode="f" horiz-adv-x="782" d="M63 831v256h130v70q0 352 339 352q129 0 222 -30v-258q-73 26 -137 26h-5q-113 0 -112 -119v-43h252v-254h-248v-831h-311v831h-130z" />
<glyph unicode="g" horiz-adv-x="1382" d="M90 602v4q0 233 150 379q137 133 338 133q205 0 354 -164v144h311v-850q0 -446 -334 -545q-118 -35 -278 -35q-268 0 -486 115l107 233q182 -100 371 -100q313 0 313 299v53q-147 -178 -358 -178q-219 0 -353.5 147.5t-134.5 364.5zM401 602q0 -115 76 -184.5t191 -69.5 t191.5 70.5t76.5 183.5v4q0 115 -78 184.5t-190 69.5q-115 0 -191 -71.5t-76 -182.5v-4z" />
<glyph unicode="h" horiz-adv-x="1275" d="M139 0v1495h312v-553q135 176 321 176q182 0 281 -114q92 -106 92 -293v-711h-311v612q0 223 -189 224q-195 0 -194 -224v-612h-312z" />
<glyph unicode="i" horiz-adv-x="618" d="M145 1219v276h328v-276h-328zM154 0v1098h311v-1098h-311z" />
<glyph unicode="j" horiz-adv-x="618" d="M-23 -78q37 -6 66 -6q111 0 111 127v1055h311v-1080q0 -352 -352 -352q-70 0 -136 12v244zM145 1219v276h328v-276h-328z" />
<glyph unicode="k" horiz-adv-x="1212" d="M139 0v1495h312v-797l364 400h373l-418 -432l432 -666h-356l-287 449l-108 -115v-334h-312z" />
<glyph unicode="l" horiz-adv-x="618" d="M154 0v1495h311v-1495h-311z" />
<glyph unicode="m" horiz-adv-x="1945" d="M139 0v1098h312v-156q135 176 323 176q219 0 309 -174q145 174 361 174q184 0 280 -110q90 -104 91 -293v-715h-312v612q0 223 -182 224q-188 0 -188 -224v-612h-312v612q0 223 -182 224q-188 0 -188 -224v-612h-312z" />
<glyph unicode="n" horiz-adv-x="1275" d="M139 0v1098h312v-156q135 176 321 176q182 0 281 -114q92 -106 92 -293v-711h-311v612q0 223 -189 224q-195 0 -194 -224v-612h-312z" />
<glyph unicode="o" horiz-adv-x="1359" d="M86 543v4q0 246 178 411q172 160 418 160q182 0 328.5 -91t218.5 -253q45 -104 45 -223v-4q0 -246 -175 -409t-421 -163q-182 0 -328.5 91.5t-218.5 255.5q-45 102 -45 221zM393 547q0 -127 82 -215t207 -88q129 0 207 86t78 213v4q0 127 -83 215t-206 88 q-129 0 -207 -86t-78 -213v-4z" />
<glyph unicode="p" horiz-adv-x="1382" d="M139 -328v1426h312v-158q131 178 342 178q158 0 278.5 -88t179.5 -235q41 -106 41 -244v-4q0 -260 -151 -420q-139 -147 -348 -147q-205 0 -342 163v-471h-312zM446 547q0 -92 41 -166q43 -80 123 -115q48 -22 103 -22q178 0 248 178q20 55 20 125v4q0 209 -164 283 q-49 20 -104 20q-121 0 -197 -94q-70 -86 -70 -209v-4z" />
<glyph unicode="q" horiz-adv-x="1382" d="M90 547v4q0 260 154 422q137 145 346 145q203 0 342 -164v144h311v-1426h-311v486q-131 -178 -342 -178q-158 0 -279 88t-178 237q-43 104 -43 242zM401 547q0 -209 166 -281q48 -22 103 -22q121 0 196 94q70 86 70 209v4q0 92 -42 169t-120 114q-49 20 -104 20 q-178 0 -246 -178q-23 -55 -23 -125v-4z" />
<glyph unicode="r" horiz-adv-x="856" d="M139 0v1098h312v-221q102 241 330 241h20v-325h-17q-334 0 -333 -387v-406h-312z" />
<glyph unicode="s" horiz-adv-x="1028" d="M53 145l133 205q180 -131 346 -131q131 0 132 82v4q0 45 -68 76q-14 4 -197 63q-119 37 -184 91q-106 84 -106 227v4q0 166 122 262q111 86 279 86q217 0 410 -127l-119 -215q-178 102 -297 102q-115 0 -115 -75v-4q0 -39 68 -72q47 -25 135 -53q100 -35 137 -49 q215 -94 215 -283v-4q0 -178 -118 -266t-302 -88q-258 0 -471 165z" />
<glyph unicode="t" horiz-adv-x="849" d="M59 831v267h131v280h312v-280h258v-267h-258v-469q0 -106 100 -106q82 0 154 39v-250q-109 -63 -246 -63q-156 0 -229 69q-90 82 -91 260v520h-131z" />
<glyph unicode="u" horiz-adv-x="1275" d="M131 387v711h311v-613q0 -223 189 -223q195 0 194 223v613h312v-1098h-312v156q-135 -176 -321 -176q-182 0 -281 114q-92 106 -92 293z" />
<glyph unicode="v" horiz-adv-x="1228" d="M41 1098h330l245 -736l248 736h324l-432 -1106h-283z" />
<glyph unicode="w" horiz-adv-x="1763" d="M49 1098h316l176 -666l207 670h268l209 -672l180 668h309l-342 -1106h-280l-211 674l-215 -674h-279z" />
<glyph unicode="x" horiz-adv-x="1196" d="M47 0l385 557l-371 541h334l205 -320l207 320h326l-371 -535l387 -563h-334l-221 342l-221 -342h-326z" />
<glyph unicode="y" horiz-adv-x="1228" d="M41 1098h330l250 -748l239 748h324l-422 -1125q-92 -246 -238 -290q-53 -17 -123 -17q-147 0 -276 76l104 225q72 -43 133 -43q72 0 109 72z" />
<glyph unicode="z" horiz-adv-x="1153" d="M102 0v219l568 627h-549v252h936v-219l-570 -627h570v-252h-955z" />
<glyph unicode="{" horiz-adv-x="1003" d="M100 469v238h54q121 0 173 46t52 165v32l-4 78q-2 18 -2 31q0 246 245 344q92 37 234 61l55 -207q-156 -43 -207 -98q-43 -47 -43 -145q0 -25 3.5 -76t3.5 -76q0 -203 -213 -274q213 -72 213 -275q0 -25 -3.5 -76t-3.5 -75q0 -117 72 -172q47 -37 178 -72l-55 -207 q-270 47 -379 148q-100 92 -100 258q0 12 2 30l4 80v31q0 119 -52.5 165t-172.5 46h-54z" />
<glyph unicode="|" horiz-adv-x="716" d="M236 -262v1896h245v-1896h-245z" />
<glyph unicode="}" horiz-adv-x="1003" d="M96 -82q156 43 207 98q43 47 43 146q0 25 -3 76t-3 75q0 203 213 275q-213 72 -213 274q0 25 3 76t3 76q0 117 -72 172q-47 37 -178 71l56 207q270 -47 380 -147q98 -92 99 -258v-31l-4 -78q-2 -20 -2 -32q0 -119 52 -165t173 -46h53v-238h-53q-121 0 -173 -46t-52 -165 q0 -12 2 -31l4 -80v-30q0 -246 -246 -344q-92 -37 -233 -62z" />
<glyph unicode="~" horiz-adv-x="1044" d="M100 510q39 131 80 190q66 92 174 93q66 0 246 -68q33 -12 62 -12q72 0 116 100l166 -51q-76 -283 -254 -283q-61 0 -246 68q-35 12 -61 12q-72 0 -117 -100z" />
<glyph unicode="&#xa1;" horiz-adv-x="663" d="M150 0v41l96 905h172l96 -946h-364zM166 1106v328h332v-328h-332z" />
<glyph unicode="&#xa2;" horiz-adv-x="1189" d="M96 723v4q0 244 167 407.5t407 163.5h12l29 148h213l-35 -180q119 -39 221 -152l-184 -199q-55 55 -101 78l-112 -567q117 14 221 115l176 -179q-176 -201 -438 -206l-33 -168h-213l39 200q-170 63 -269.5 209t-99.5 326zM397 727q0 -184 131 -264l111 567 q-78 -6 -138.5 -58t-84.5 -128q-18 -53 -19 -113v-4z" />
<glyph unicode="&#xa3;" horiz-adv-x="1318" d="M123 0v207l156 51v289h-156v260h156v166q0 227 122 350q131 131 363 131q233 0 381 -143q43 -43 80 -92l-240 -193q-106 135 -217 135q-84 0 -127 -56t-43 -140v-158h467v-260h-467v-275h623v-272h-1098z" />
<glyph unicode="&#xa4;" horiz-adv-x="1474" d="M100 444v207h154q-2 16 -2 31v72q0 18 2 37h-154v206h193q66 211 223.5 336t372.5 125q258 0 416 -155q47 -49 88 -107l-238 -180q-123 162 -272 162q-176 0 -262 -181h378v-206h-426q-2 -16 -2 -33v-74q0 -16 2 -33h426v-207h-381q84 -188 277 -188q88 0 158 49 q51 35 118 119l226 -166q-201 -283 -502 -283q-348 0 -520 279q-55 86 -86 190h-189z" />
<glyph unicode="&#xa5;" horiz-adv-x="1404" d="M29 1434h362l316 -531l317 531h352l-442 -676h297v-221h-377v-127h377v-222h-377v-188h-303v188h-377v222h377v127h-377v221h293z" />
<glyph unicode="&#xa7;" horiz-adv-x="1294" d="M113 702v5q0 139 112 206q33 18 70 33q-86 66 -86 187v4q0 166 133 247q111 70 287 70q299 0 477 -194l-168 -168q-147 135 -301 135q-135 0 -135 -74v-4q0 -33 42 -57.5t183 -55.5q248 -55 348 -118q106 -70 107 -187v-4q0 -168 -183 -240q86 -70 86 -186v-4 q0 -166 -133 -248q-110 -69 -286 -69q-299 0 -478 194l168 168q147 -135 301 -135q135 0 136 74v4q0 37 -47.5 60.5t-178.5 51.5q-242 53 -348 122t-106 183zM385 748q0 -66 207 -119q146 -37 205 -37q113 0 112 90v4q0 66 -207 119q-145 37 -204 37q-113 0 -113 -90v-4z " />
<glyph unicode="&#xa8;" horiz-adv-x="1024" d="M143 1219v276h299v-276h-299zM582 1219v276h299v-276h-299z" />
<glyph unicode="&#xa9;" horiz-adv-x="1699" d="M109 713v4q0 309 219 525t524 216q309 0 524 -216t215 -521v-4q0 -309 -219 -525.5t-524 -216.5q-309 0 -524 216.5t-215 521.5zM195 713q0 -279 189.5 -467.5t463.5 -188.5q203 0 366.5 108.5t241.5 295.5q49 121 49 256v4q0 276 -189.5 465.5t-463.5 189.5 q-203 0 -366.5 -108.5t-239.5 -294.5q-51 -121 -51 -256v-4zM455 723v4q0 176 118.5 292t290.5 116q186 0 312 -121l-113 -131q-96 88 -199 88q-98 0 -161.5 -72t-63.5 -170v-4q0 -100 63.5 -171t161.5 -71q96 0 203 92l115 -114q-134 -142 -324 -142q-172 0 -287.5 117 t-115.5 287z" />
<glyph unicode="&#xaa;" horiz-adv-x="798" d="M100 567v135h570v-135h-570zM106 1001v5q0 193 244 192q70 0 148 -24v10q0 111 -131 110q-84 0 -166 -32l-43 129q113 49 233 49q207 0 256 -152q14 -49 15 -108v-351h-166v66q-70 -78 -183 -78q-90 0 -145 47q-61 49 -62 137zM272 1010q1 -74 93 -74q53 0 94 27.5 t41 78.5v31q-49 23 -111 23q-117 0 -117 -82v-4z" />
<glyph unicode="&#xab;" horiz-adv-x="1320" d="M84 541v16l344 459l238 -115l-267 -350l267 -350l-238 -119zM641 541v16l344 459l238 -115l-267 -350l267 -350l-238 -119z" />
<glyph unicode="&#xad;" horiz-adv-x="835" d="M102 485v299h631v-299h-631z" />
<glyph unicode="&#xae;" horiz-adv-x="1699" d="M109 713v4q0 309 219 525t524 216q309 0 524 -216t215 -521v-4q0 -309 -219 -525.5t-524 -216.5q-309 0 -524 216.5t-215 521.5zM195 713q0 -279 189.5 -467.5t463.5 -188.5q203 0 366.5 108.5t241.5 295.5q49 121 49 256v4q0 276 -189.5 465.5t-463.5 189.5 q-203 0 -366.5 -108.5t-239.5 -294.5q-51 -121 -51 -256v-4zM545 344v789h350q133 0 217 -62q92 -70 92 -197v-4q0 -180 -170 -243l193 -283h-203l-168 254h-137v-254h-174zM719 748h174q135 0 135 112v4q0 115 -139 115h-170v-231z" />
<glyph unicode="&#xaf;" horiz-adv-x="1024" d="M143 1229v215h738v-215h-738z" />
<glyph unicode="&#xb0;" horiz-adv-x="983" d="M137 1098v4q0 139 107.5 241.5t247.5 102.5q141 0 247.5 -102.5t106.5 -241.5v-4q0 -139 -107.5 -241.5t-246.5 -102.5q-141 0 -248 102t-107 242zM303 1098q0 -80 54.5 -135.5t134.5 -55.5t134 55.5t54 135.5v4q0 80 -54.5 135t-133.5 55q-80 0 -134.5 -55t-54.5 -135 v-4z" />
<glyph unicode="&#xb1;" horiz-adv-x="1257" d="M76 219l211 205q158 -166 360 -166q211 0 211 168v4q0 162 -270 162h-158v262h166q92 0 152 37q72 43 71 129v4q0 78 -67 119q-57 33 -140 33q-145 0 -293 -166l-217 184q111 137 226 199q123 66 288 65q229 0 370.5 -107.5t141.5 -277.5v-4q0 -225 -188 -332 q227 -100 227 -311v-4q0 -217 -159 -338q-144 -109 -365 -109q-342 0 -567 244z" />
<glyph unicode="&#xb4;" horiz-adv-x="1024" d="M299 1219l231 362l269 -117l-262 -245h-238z" />
<glyph unicode="&#xb6;" horiz-adv-x="1208" d="M72 948v4q0 223 157 355q152 127 408 127h399v-1434h-315v471h-49q-268 0 -428 121q-172 127 -172 356z" />
<glyph unicode="&#xb7;" horiz-adv-x="585" d="M127 471v328h332v-328h-332z" />
<glyph unicode="&#xb8;" horiz-adv-x="1024" d="M242 -246l182 266h229l-151 -374z" />
<glyph unicode="&#xba;" horiz-adv-x="798" d="M84 1126v4q0 133 92 223.5t225 90.5t223.5 -90t90.5 -221v-5q0 -133 -92.5 -223t-225.5 -90t-223 90t-90 221zM104 567v135h590v-135h-590zM252 1128q0 -68 41.5 -116.5t107.5 -48.5t106 48t40 115v4q0 68 -42 117t-108 49t-105.5 -48t-39.5 -115v-5z" />
<glyph unicode="&#xbb;" horiz-adv-x="1320" d="M98 197l267 350l-267 350l238 119l344 -459v-16l-344 -459zM655 197l267 350l-267 350l238 119l344 -459v-16l-344 -459z" />
<glyph unicode="&#xbf;" horiz-adv-x="1114" d="M76 406v4q0 180 119 286q96 88 284 125l23 125h209l47 -332l-10 -10q-358 -14 -359 -186v-4q0 -145 189 -146q166 0 307 142l188 -207q-203 -221 -502 -221q-225 0 -360 111.5t-135 312.5zM446 1106v328h332v-328h-332z" />
<glyph unicode="&#xc0;" d="M49 0l615 1444h290l615 -1444h-330l-131 322h-606l-131 -322h-322zM440 1792l269 117l231 -363h-238zM614 600h381l-190 465z" />
<glyph unicode="&#xc1;" d="M49 0l615 1444h290l615 -1444h-330l-131 322h-606l-131 -322h-322zM614 600h381l-190 465zM678 1546l231 363l269 -117l-263 -246h-237z" />
<glyph unicode="&#xc2;" d="M49 0l615 1444h290l615 -1444h-330l-131 322h-606l-131 -322h-322zM410 1546l252 322h294l252 -322h-239l-162 135l-162 -135h-235zM614 600h381l-190 465z" />
<glyph unicode="&#xc3;" d="M49 0l615 1444h290l615 -1444h-330l-131 322h-606l-131 -322h-322zM387 1577q39 131 80 190q66 92 174 93q66 0 246 -68q33 -12 61 -12q72 0 117 100l166 -51q-76 -283 -254 -283q-61 0 -246 68q-35 12 -61 12q-72 0 -117 -100zM614 600h381l-190 465z" />
<glyph unicode="&#xc4;" d="M49 0l615 1444h290l615 -1444h-330l-131 322h-606l-131 -322h-322zM440 1546v277h299v-277h-299zM614 600h381l-190 465zM879 1546v277h299v-277h-299z" />
<glyph unicode="&#xc5;" d="M49 0l598 1407q-86 78 -86 178v4q0 96 76 167t172 71q98 0 173 -70.5t75 -167.5v-4q0 -100 -86 -178l598 -1407h-330l-131 322h-606l-131 -322h-322zM614 600h381l-190 465zM682 1585q0 -53 37 -89t90 -36t90 36t37 89v4q0 53 -37 89t-90 36t-90 -36t-37 -89v-4z" />
<glyph unicode="&#xc6;" horiz-adv-x="2140" d="M18 0l773 1434h1230v-281h-716v-291h624v-280h-624v-301h727v-281h-1041v322h-481l-170 -322h-322zM657 600h334v561h-37z" />
<glyph unicode="&#xc7;" horiz-adv-x="1511" d="M109 713v4q0 319 216 530t531 211q274 0 459 -131q57 -41 106 -90l-200 -231q-180 162 -367 161q-182 0 -303 -135q-113 -129 -113 -311v-4q0 -186 117 -318.5t299 -132.5q197 0 377 168l201 -203q-223 -240 -535 -254l-133 -331l-260 108l164 242q-254 59 -406.5 258 t-152.5 459z" />
<glyph unicode="&#xc8;" horiz-adv-x="1372" d="M172 0v1434h1081v-281h-768v-291h676v-280h-676v-301h779v-281h-1092zM387 1792l268 117l232 -363h-238z" />
<glyph unicode="&#xc9;" horiz-adv-x="1372" d="M172 0v1434h1081v-281h-768v-291h676v-280h-676v-301h779v-281h-1092zM541 1546l231 363l268 -117l-262 -246h-237z" />
<glyph unicode="&#xca;" horiz-adv-x="1372" d="M172 0v1434h1081v-281h-768v-291h676v-280h-676v-301h779v-281h-1092zM309 1546l252 322h295l252 -322h-240l-161 135l-162 -135h-236z" />
<glyph unicode="&#xcb;" horiz-adv-x="1372" d="M172 0v1434h1081v-281h-768v-291h676v-280h-676v-301h779v-281h-1092zM340 1546v277h299v-277h-299zM778 1546v277h299v-277h-299z" />
<glyph unicode="&#xcc;" horiz-adv-x="688" d="M-25 1792l269 117l231 -363h-237zM186 0v1434h316v-1434h-316z" />
<glyph unicode="&#xcd;" horiz-adv-x="688" d="M186 0v1434h316v-1434h-316zM213 1546l231 363l269 -117l-262 -246h-238z" />
<glyph unicode="&#xce;" horiz-adv-x="688" d="M-55 1546l252 322h295l251 -322h-239l-162 135l-162 -135h-235zM186 0v1434h316v-1434h-316z" />
<glyph unicode="&#xcf;" horiz-adv-x="688" d="M-25 1546v277h299v-277h-299zM186 0v1434h316v-1434h-316zM414 1546v277h299v-277h-299z" />
<glyph unicode="&#xd0;" horiz-adv-x="1662" d="M80 582v278h153v574h560q334 0 550 -205q211 -201 211 -508v-4q0 -322 -225 -522q-217 -195 -536 -195h-560v582h-153zM545 285h248q197 0 314.5 120.5t117.5 307.5v4q0 193 -121 312.5t-311 119.5h-248v-289h311v-278h-311v-297z" />
<glyph unicode="&#xd1;" d="M172 0v1434h291l672 -883v883h311v-1434h-268l-695 911v-911h-311zM387 1577q39 131 80 190q66 92 174 93q66 0 246 -68q33 -12 61 -12q72 0 117 100l166 -51q-76 -283 -254 -283q-61 0 -246 68q-35 12 -61 12q-72 0 -117 -100z" />
<glyph unicode="&#xd2;" horiz-adv-x="1740" d="M109 713v4q0 319 223 530t540 211q233 0 424 -119.5t281 -328.5q55 -135 55 -289v-4q0 -319 -223.5 -530.5t-540.5 -211.5q-233 0 -423.5 120t-278.5 331q-57 133 -57 287zM438 717q0 -190 124 -320.5t310 -130.5q188 0 309.5 130t121.5 317v4q0 188 -124 319t-311 131 q-188 0 -309 -130t-121 -316v-4zM481 1792l269 117l231 -363h-238z" />
<glyph unicode="&#xd3;" horiz-adv-x="1740" d="M109 713v4q0 319 223 530t540 211q233 0 424 -119.5t281 -328.5q55 -135 55 -289v-4q0 -319 -223.5 -530.5t-540.5 -211.5q-233 0 -423.5 120t-278.5 331q-57 133 -57 287zM438 717q0 -190 124 -320.5t310 -130.5q188 0 309.5 130t121.5 317v4q0 188 -124 319t-311 131 q-188 0 -309 -130t-121 -316v-4zM760 1546l231 363l269 -117l-263 -246h-237z" />
<glyph unicode="&#xd4;" horiz-adv-x="1740" d="M109 713v4q0 319 223 530t540 211q233 0 424 -119.5t281 -328.5q55 -135 55 -289v-4q0 -319 -223.5 -530.5t-540.5 -211.5q-233 0 -423.5 120t-278.5 331q-57 133 -57 287zM438 717q0 -190 124 -320.5t310 -130.5q188 0 309.5 130t121.5 317v4q0 188 -124 319t-311 131 q-188 0 -309 -130t-121 -316v-4zM471 1546l252 322h295l252 -322h-240l-162 135l-161 -135h-236z" />
<glyph unicode="&#xd5;" horiz-adv-x="1740" d="M109 713v4q0 319 223 530t540 211q233 0 424 -119.5t281 -328.5q55 -135 55 -289v-4q0 -319 -223.5 -530.5t-540.5 -211.5q-233 0 -423.5 120t-278.5 331q-57 133 -57 287zM438 717q0 -190 124 -320.5t310 -130.5q188 0 309.5 130t121.5 317v4q0 188 -124 319t-311 131 q-188 0 -309 -130t-121 -316v-4zM449 1577q39 131 79 190q66 92 174 93q66 0 246 -68q33 -12 62 -12q72 0 116 100l166 -51q-76 -283 -254 -283q-61 0 -245 68q-35 12 -62 12q-72 0 -117 -100z" />
<glyph unicode="&#xd6;" horiz-adv-x="1740" d="M109 713v4q0 319 223 530t540 211q233 0 424 -119.5t281 -328.5q55 -135 55 -289v-4q0 -319 -223.5 -530.5t-540.5 -211.5q-233 0 -423.5 120t-278.5 331q-57 133 -57 287zM438 717q0 -190 124 -320.5t310 -130.5q188 0 309.5 130t121.5 317v4q0 188 -124 319t-311 131 q-188 0 -309 -130t-121 -316v-4zM502 1546v277h299v-277h-299zM940 1546v277h299v-277h-299z" />
<glyph unicode="&#xd8;" horiz-adv-x="1740" d="M92 -10l201 231q-184 205 -184 492v4q0 319 223 530t540 211q217 0 396 -102l80 88h301l-201 -234q184 -205 184 -489v-4q0 -319 -223.5 -530.5t-540.5 -211.5q-217 0 -395 103l-80 -88h-301zM432 717q0 -137 70 -252l569 659q-98 49 -203 50q-190 0 -313 -132.5 t-123 -320.5v-4zM670 309q98 -49 202 -49q190 0 313.5 132t123.5 321v4q0 137 -70 252z" />
<glyph unicode="&#xd9;" horiz-adv-x="1548" d="M150 614v820h315v-811q0 -354 309 -355q309 0 309 344v822h316v-809q0 -319 -170 -486q-162 -162 -459 -162q-303 0 -461.5 166t-158.5 471zM416 1782l268 116l231 -362h-237z" />
<glyph unicode="&#xda;" horiz-adv-x="1548" d="M150 614v820h315v-811q0 -354 309 -355q309 0 309 344v822h316v-809q0 -319 -170 -486q-162 -162 -459 -162q-303 0 -461.5 166t-158.5 471zM633 1536l231 362l269 -116l-263 -246h-237z" />
<glyph unicode="&#xdb;" horiz-adv-x="1548" d="M150 614v820h315v-811q0 -354 309 -355q309 0 309 344v822h316v-809q0 -319 -170 -486q-162 -162 -459 -162q-303 0 -461.5 166t-158.5 471zM375 1546l252 322h295l252 -322h-240l-162 135l-162 -135h-235z" />
<glyph unicode="&#xdc;" horiz-adv-x="1548" d="M150 614v820h315v-811q0 -354 309 -355q309 0 309 344v822h316v-809q0 -319 -170 -486q-162 -162 -459 -162q-303 0 -461.5 166t-158.5 471zM406 1546v277h299v-277h-299zM844 1546v277h299v-277h-299z" />
<glyph unicode="&#xdd;" horiz-adv-x="1466" d="M25 1434h368l342 -576l348 576h359l-551 -863v-571h-316v565zM612 1536l232 362l268 -116l-262 -246h-238z" />
<glyph unicode="&#xde;" horiz-adv-x="1378" d="M172 0v1434h315v-209h271q254 0 401.5 -136.5t147.5 -359.5v-4q0 -242 -168 -377q-160 -127 -412 -127h-240v-221h-315zM487 502h250q106 0 174 55q76 57 76 162v4q0 217 -256 217h-244v-438z" />
<glyph unicode="&#xdf;" horiz-adv-x="1269" d="M139 0v1030q0 223 136.5 351t367.5 128q213 0 340 -114q117 -106 117 -283v-4q0 -174 -113 -277q-35 -31 -74 -57q268 -119 269 -362v-4q0 -311 -334 -392q-106 -27 -236 -20v233q262 12 262 189v4q0 160 -262 199v204q180 113 181 254v4q0 164 -164 164 q-86 0 -133 -58.5t-47 -146.5v-1042h-310z" />
<glyph unicode="&#xe0;" horiz-adv-x="1212" d="M74 315v4q0 172 125 265q115 86 317 86q137 0 268 -45v18q0 201 -235 201q-145 0 -303 -60l-78 238q205 88 426 88q248 0 368.5 -121t120.5 -352v-637h-301v119q-124 -139 -331 -139q-164 0 -270.5 89t-106.5 246zM258 1464l268 117l232 -362h-238zM375 328 q0 -133 170 -133q100 0 166 45q78 53 77 147v55q-90 41 -198 41q-215 0 -215 -151v-4z" />
<glyph unicode="&#xe1;" horiz-adv-x="1212" d="M74 315v4q0 172 125 265q115 86 317 86q137 0 268 -45v18q0 201 -235 201q-145 0 -303 -60l-78 238q205 88 426 88q248 0 368.5 -121t120.5 -352v-637h-301v119q-124 -139 -331 -139q-164 0 -270.5 89t-106.5 246zM375 328q0 -133 170 -133q100 0 166 45q78 53 77 147v55 q-90 41 -198 41q-215 0 -215 -151v-4zM465 1219l231 362l269 -117l-263 -245h-237z" />
<glyph unicode="&#xe2;" horiz-adv-x="1212" d="M74 315v4q0 172 125 265q115 86 317 86q137 0 268 -45v18q0 201 -235 201q-145 0 -303 -60l-78 238q205 88 426 88q248 0 368.5 -121t120.5 -352v-637h-301v119q-124 -139 -331 -139q-164 0 -270.5 89t-106.5 246zM203 1219l252 321h295l251 -321h-239l-162 135 l-162 -135h-235zM375 328q0 -133 170 -133q100 0 166 45q78 53 77 147v55q-90 41 -198 41q-215 0 -215 -151v-4z" />
<glyph unicode="&#xe3;" horiz-adv-x="1212" d="M74 315v4q0 172 125 265q115 86 317 86q137 0 268 -45v18q0 201 -235 201q-145 0 -303 -60l-78 238q205 88 426 88q248 0 368.5 -121t120.5 -352v-637h-301v119q-124 -139 -331 -139q-164 0 -270.5 89t-106.5 246zM184 1249q39 131 80 191q66 92 174 92q66 0 246 -68 q33 -12 61 -12q72 0 117 100l166 -51q-76 -283 -254 -282q-61 0 -246 67q-35 12 -61 12q-72 0 -117 -100zM375 328q0 -133 170 -133q100 0 166 45q78 53 77 147v55q-90 41 -198 41q-215 0 -215 -151v-4z" />
<glyph unicode="&#xe4;" horiz-adv-x="1212" d="M74 315v4q0 172 125 265q115 86 317 86q137 0 268 -45v18q0 201 -235 201q-145 0 -303 -60l-78 238q205 88 426 88q248 0 368.5 -121t120.5 -352v-637h-301v119q-124 -139 -331 -139q-164 0 -270.5 89t-106.5 246zM233 1219v276h299v-276h-299zM375 328q0 -133 170 -133 q100 0 166 45q78 53 77 147v55q-90 41 -198 41q-215 0 -215 -151v-4zM672 1219v276h299v-276h-299z" />
<glyph unicode="&#xe5;" horiz-adv-x="1212" d="M74 315v4q0 172 125 265q115 86 317 86q137 0 268 -45v18q0 201 -235 201q-145 0 -303 -60l-78 238q205 88 426 88q248 0 368.5 -121t120.5 -352v-637h-301v119q-124 -139 -331 -139q-164 0 -270.5 89t-106.5 246zM354 1452v4q0 96 76 167t172 71q98 0 173 -71t75 -167 v-4q0 -96 -76 -167t-172 -71q-98 0 -173 71t-75 167zM375 328q0 -133 170 -133q100 0 166 45q78 53 77 147v55q-90 41 -198 41q-215 0 -215 -151v-4zM475 1452q0 -53 37 -89t90 -36t90 36t37 89v4q0 53 -37 89t-90 36t-90 -36t-37 -89v-4z" />
<glyph unicode="&#xe6;" horiz-adv-x="1947" d="M74 315v4q0 172 125 265q115 86 317 86q137 0 268 -45v18q0 201 -235 201q-145 0 -303 -60l-78 238q205 88 426 88q258 0 373 -139q143 147 362 147q254 0 397 -180q129 -164 129 -416q0 -37 -4 -82h-764q45 -215 269 -215q141 0 266 113l178 -158q-166 -205 -448 -205 q-252 0 -418 166q-220 -161 -447 -161q-289 0 -383 194q-31 61 -30 141zM375 328q0 -63 55 -99q47 -30 115 -30q143 0 280 104q-31 72 -39 141q-98 39 -196 39q-215 0 -215 -151v-4zM1083 635h469q-33 233 -231 233q-197 0 -238 -233z" />
<glyph unicode="&#xe7;" horiz-adv-x="1169" d="M86 543v4q0 246 167 408.5t409 162.5q272 0 438 -184l-191 -205q-117 121 -250 121q-119 0 -192.5 -89t-73.5 -210v-4q0 -129 77 -216t202 -87q127 0 252 116l182 -184q-168 -182 -397 -199l-134 -331l-260 108l168 246q-180 53 -288.5 203.5t-108.5 339.5z" />
<glyph unicode="&#xe8;" horiz-adv-x="1255" d="M86 543v4q0 240 153.5 405.5t389.5 165.5q258 0 405 -180q129 -164 129 -416q0 -37 -4 -82h-764q45 -215 269 -215q141 0 266 113l178 -158q-166 -205 -449 -205q-250 0 -411.5 159t-161.5 409zM250 1464l268 117l232 -362h-238zM391 635h469q-33 233 -231 233 q-197 0 -238 -233z" />
<glyph unicode="&#xe9;" horiz-adv-x="1255" d="M86 543v4q0 240 153.5 405.5t389.5 165.5q258 0 405 -180q129 -164 129 -416q0 -37 -4 -82h-764q45 -215 269 -215q141 0 266 113l178 -158q-166 -205 -449 -205q-250 0 -411.5 159t-161.5 409zM391 635h469q-33 233 -231 233q-197 0 -238 -233zM504 1219l231 362 l269 -117l-263 -245h-237z" />
<glyph unicode="&#xea;" horiz-adv-x="1255" d="M86 543v4q0 240 153.5 405.5t389.5 165.5q258 0 405 -180q129 -164 129 -416q0 -37 -4 -82h-764q45 -215 269 -215q141 0 266 113l178 -158q-166 -205 -449 -205q-250 0 -411.5 159t-161.5 409zM227 1219l252 321h295l252 -321h-240l-161 135l-162 -135h-236zM391 635 h469q-33 233 -231 233q-197 0 -238 -233z" />
<glyph unicode="&#xeb;" horiz-adv-x="1255" d="M86 543v4q0 240 153.5 405.5t389.5 165.5q258 0 405 -180q129 -164 129 -416q0 -37 -4 -82h-764q45 -215 269 -215q141 0 266 113l178 -158q-166 -205 -449 -205q-250 0 -411.5 159t-161.5 409zM258 1219v276h299v-276h-299zM391 635h469q-33 233 -231 233 q-197 0 -238 -233zM696 1219v276h299v-276h-299z" />
<glyph unicode="&#xec;" horiz-adv-x="618" d="M-55 1464l268 117l231 -362h-237zM154 0v1098h311v-1098h-311z" />
<glyph unicode="&#xed;" horiz-adv-x="618" d="M154 0v1098h311v-1098h-311zM174 1219l232 362l268 -117l-262 -245h-238z" />
<glyph unicode="&#xee;" horiz-adv-x="618" d="M-90 1219l252 321h295l252 -321h-240l-162 135l-162 -135h-235zM154 0v1098h311v-1098h-311z" />
<glyph unicode="&#xef;" horiz-adv-x="618" d="M-59 1219v276h299v-276h-299zM154 0v1098h311v-1098h-311zM379 1219v276h299v-276h-299z" />
<glyph unicode="&#xf0;" horiz-adv-x="1327" d="M86 512v4q0 152 72.5 270.5t208.5 174.5q86 35 188 34q129 0 252 -65l-178 237l-234 -96l-114 154l235 94l-131 176h350l47 -68l205 84l113 -153l-209 -84l166 -236q180 -256 180 -497v-4q0 -254 -167 -408t-417 -154q-174 0 -315 86t-209 240q-43 98 -43 211zM389 506 q0 -119 79 -193.5t196 -74.5q190 0 251 163q18 49 19 105v4q0 119 -78 191.5t-194 72.5q-121 0 -197 -71.5t-76 -192.5v-4z" />
<glyph unicode="&#xf1;" horiz-adv-x="1275" d="M139 0v1098h312v-156q135 176 321 176q182 0 281 -114q92 -106 92 -293v-711h-311v612q0 223 -189 224q-195 0 -194 -224v-612h-312zM225 1249q39 131 80 191q66 92 174 92q66 0 246 -68q33 -12 61 -12q72 0 117 100l166 -51q-76 -283 -254 -282q-61 0 -246 67 q-35 12 -61 12q-72 0 -117 -100z" />
<glyph unicode="&#xf2;" horiz-adv-x="1359" d="M86 543v4q0 246 178 411q172 160 418 160q182 0 328.5 -91t218.5 -253q45 -104 45 -223v-4q0 -246 -175 -409t-421 -163q-182 0 -328.5 91.5t-218.5 255.5q-45 102 -45 221zM299 1464l268 117l232 -362h-238zM393 547q0 -127 82 -215t207 -88q129 0 207 86t78 213v4 q0 127 -83 215t-206 88q-129 0 -207 -86t-78 -213v-4z" />
<glyph unicode="&#xf3;" horiz-adv-x="1359" d="M86 543v4q0 246 178 411q172 160 418 160q182 0 328.5 -91t218.5 -253q45 -104 45 -223v-4q0 -246 -175 -409t-421 -163q-182 0 -328.5 91.5t-218.5 255.5q-45 102 -45 221zM393 547q0 -127 82 -215t207 -88q129 0 207 86t78 213v4q0 127 -83 215t-206 88 q-129 0 -207 -86t-78 -213v-4zM561 1219l232 362l268 -117l-262 -245h-238z" />
<glyph unicode="&#xf4;" horiz-adv-x="1359" d="M86 543v4q0 246 178 411q172 160 418 160q182 0 328.5 -91t218.5 -253q45 -104 45 -223v-4q0 -246 -175 -409t-421 -163q-182 0 -328.5 91.5t-218.5 255.5q-45 102 -45 221zM281 1219l251 321h295l252 -321h-239l-162 135l-162 -135h-235zM393 547q0 -127 82 -215 t207 -88q129 0 207 86t78 213v4q0 127 -83 215t-206 88q-129 0 -207 -86t-78 -213v-4z" />
<glyph unicode="&#xf5;" horiz-adv-x="1359" d="M86 543v4q0 246 178 411q172 160 418 160q182 0 328.5 -91t218.5 -253q45 -104 45 -223v-4q0 -246 -175 -409t-421 -163q-182 0 -328.5 91.5t-218.5 255.5q-45 102 -45 221zM258 1249q39 131 80 191q66 92 174 92q66 0 246 -68q33 -12 61 -12q72 0 117 100l166 -51 q-76 -283 -254 -282q-61 0 -246 67q-35 12 -61 12q-72 0 -117 -100zM393 547q0 -127 82 -215t207 -88q129 0 207 86t78 213v4q0 127 -83 215t-206 88q-129 0 -207 -86t-78 -213v-4z" />
<glyph unicode="&#xf6;" horiz-adv-x="1359" d="M86 543v4q0 246 178 411q172 160 418 160q182 0 328.5 -91t218.5 -253q45 -104 45 -223v-4q0 -246 -175 -409t-421 -163q-182 0 -328.5 91.5t-218.5 255.5q-45 102 -45 221zM311 1219v276h299v-276h-299zM393 547q0 -127 82 -215t207 -88q129 0 207 86t78 213v4 q0 127 -83 215t-206 88q-129 0 -207 -86t-78 -213v-4zM750 1219v276h299v-276h-299z" />
<glyph unicode="&#xf8;" horiz-adv-x="1359" d="M55 -10l164 188q-133 154 -133 365v4q0 246 178 411q172 160 418 160q162 0 293 -71l57 61h273l-52 -59q-16 -18 -51 -60l-63 -71q135 -152 135 -367v-4q0 -246 -175 -409t-421 -163q-160 0 -295 72l-55 -57h-273zM385 547q0 -74 33 -144l377 431q-53 25 -117 24 q-209 0 -272 -188q-20 -57 -21 -119v-4zM565 258q56 -22 117 -22q209 0 274 190q18 55 19 117v4q0 74 -33 143z" />
<glyph unicode="&#xf9;" horiz-adv-x="1275" d="M131 387v711h311v-613q0 -223 189 -223q195 0 194 223v613h312v-1098h-312v156q-135 -176 -321 -176q-182 0 -281 114q-92 106 -92 293zM289 1464l268 117l231 -362h-237z" />
<glyph unicode="&#xfa;" horiz-adv-x="1275" d="M131 387v711h311v-613q0 -223 189 -223q195 0 194 223v613h312v-1098h-312v156q-135 -176 -321 -176q-182 0 -281 114q-92 106 -92 293zM485 1219l232 362l268 -117l-262 -245h-238z" />
<glyph unicode="&#xfb;" horiz-adv-x="1275" d="M131 387v711h311v-613q0 -223 189 -223q195 0 194 223v613h312v-1098h-312v156q-135 -176 -321 -176q-182 0 -281 114q-92 106 -92 293zM238 1219l251 321h295l252 -321h-239l-162 135l-162 -135h-235z" />
<glyph unicode="&#xfc;" horiz-adv-x="1275" d="M131 387v711h311v-613q0 -223 189 -223q195 0 194 223v613h312v-1098h-312v156q-135 -176 -321 -176q-182 0 -281 114q-92 106 -92 293zM268 1219v276h299v-276h-299zM707 1219v276h299v-276h-299z" />
<glyph unicode="&#xfd;" horiz-adv-x="1228" d="M41 1098h330l250 -748l239 748h324l-422 -1125q-92 -246 -238 -290q-53 -17 -123 -17q-147 0 -276 76l104 225q72 -43 133 -43q72 0 109 72zM469 1219l231 362l269 -117l-262 -245h-238z" />
<glyph unicode="&#xfe;" horiz-adv-x="1382" d="M139 -328v1823h312v-555q131 178 342 178q158 0 278.5 -88t179.5 -235q41 -106 41 -244v-4q0 -260 -151 -420q-139 -147 -348 -147q-205 0 -342 163v-471h-312zM446 547q0 -92 41 -166q43 -80 123 -115q48 -22 103 -22q178 0 248 178q20 55 20 125v4q0 209 -164 283 q-49 20 -104 20q-121 0 -197 -94q-70 -86 -70 -209v-4z" />
<glyph unicode="&#xff;" horiz-adv-x="1228" d="M41 1098h330l250 -748l239 748h324l-422 -1125q-92 -246 -238 -290q-53 -17 -123 -17q-147 0 -276 76l104 225q72 -43 133 -43q72 0 109 72zM246 1219v276h299v-276h-299zM684 1219v276h299v-276h-299z" />
<glyph unicode="&#x152;" horiz-adv-x="2201" d="M109 713v4q0 309 215 513t546 204h1213v-281h-717v-291h625v-280h-625v-301h727v-281h-1223q-334 0 -547.5 203t-213.5 510zM438 717q0 -193 120 -312.5t312 -119.5h183v864h-183q-195 0 -313.5 -119t-118.5 -309v-4z" />
<glyph unicode="&#x153;" horiz-adv-x="2115" d="M86 543v4q0 240 173 405.5t413 165.5q258 0 413 -182q152 182 404 182q258 0 405 -180q129 -164 129 -416q0 -37 -4 -82h-764q45 -215 269 -215q141 0 266 113l178 -158q-166 -205 -448 -205q-274 0 -439 187q-164 -187 -422 -187q-238 0 -405.5 166t-167.5 402zM393 547 q0 -123 79 -213t200 -90q127 0 202 90q72 82 72 209v4q0 123 -79 213t-199 90q-125 0 -200 -87t-75 -212v-4zM1251 635h469q-33 233 -231 233q-197 0 -238 -233z" />
<glyph unicode="&#x178;" horiz-adv-x="1466" d="M25 1434h368l342 -576l348 576h359l-551 -863v-571h-316v565zM365 1546v277h299v-277h-299zM803 1546v277h299v-277h-299z" />
<glyph unicode="&#x2c6;" horiz-adv-x="1024" d="M113 1219l252 321h294l252 -321h-239l-162 135l-162 -135h-235z" />
<glyph unicode="&#x2dc;" horiz-adv-x="1024" d="M90 1249q39 131 80 191q66 92 174 92q66 0 246 -68q33 -12 61 -12q72 0 117 100l166 -51q-76 -283 -254 -282q-61 0 -246 67q-35 12 -61 12q-72 0 -117 -100z" />
<glyph unicode="&#x2000;" horiz-adv-x="954" />
<glyph unicode="&#x2001;" horiz-adv-x="1909" />
<glyph unicode="&#x2002;" horiz-adv-x="954" />
<glyph unicode="&#x2003;" horiz-adv-x="1909" />
<glyph unicode="&#x2004;" horiz-adv-x="636" />
<glyph unicode="&#x2005;" horiz-adv-x="477" />
<glyph unicode="&#x2006;" horiz-adv-x="318" />
<glyph unicode="&#x2007;" horiz-adv-x="318" />
<glyph unicode="&#x2008;" horiz-adv-x="238" />
<glyph unicode="&#x2009;" horiz-adv-x="381" />
<glyph unicode="&#x200a;" horiz-adv-x="106" />
<glyph unicode="&#x2010;" horiz-adv-x="835" d="M102 485v299h631v-299h-631z" />
<glyph unicode="&#x2011;" horiz-adv-x="835" d="M102 485v299h631v-299h-631z" />
<glyph unicode="&#x2012;" horiz-adv-x="835" d="M102 485v299h631v-299h-631z" />
<glyph unicode="&#x2013;" horiz-adv-x="1081" d="M102 489v291h877v-291h-877z" />
<glyph unicode="&#x2014;" horiz-adv-x="1839" d="M102 489v291h1635v-291h-1635z" />
<glyph unicode="&#x2018;" horiz-adv-x="585" d="M117 784v277q0 375 379 383l26 -129q-217 -23 -200 -203h127v-328h-332z" />
<glyph unicode="&#x2019;" horiz-adv-x="585" d="M63 903q217 23 201 203h-127v328h332v-277q0 -379 -379 -383z" />
<glyph unicode="&#x201a;" horiz-adv-x="585" d="M53 -203q217 23 201 203h-127v328h332v-277q0 -379 -379 -383z" />
<glyph unicode="&#x201c;" horiz-adv-x="1105" d="M117 784v277q0 375 379 383l26 -129q-217 -23 -200 -203h127v-328h-332zM637 784v277q0 375 379 383l26 -129q-217 -23 -200 -203h127v-328h-332z" />
<glyph unicode="&#x201d;" horiz-adv-x="1105" d="M63 903q217 23 201 203h-127v328h332v-277q0 -379 -379 -383zM584 903q217 23 200 203h-127v328h332v-277q0 -379 -379 -383z" />
<glyph unicode="&#x201e;" horiz-adv-x="1105" d="M53 -203q217 23 201 203h-127v328h332v-277q0 -379 -379 -383zM573 -203q217 23 201 203h-127v328h332v-277q0 -379 -379 -383z" />
<glyph unicode="&#x2022;" horiz-adv-x="1024" d="M207 719v4q0 127 89 215t216 88t216 -89t89 -214v-4q0 -127 -90 -215t-215 -88q-127 0 -216 88t-89 215z" />
<glyph unicode="&#x2026;" horiz-adv-x="1720" d="M127 0v319h324v-319h-324zM698 0v319h324v-319h-324zM1270 0v319h323v-319h-323z" />
<glyph unicode="&#x202f;" horiz-adv-x="381" />
<glyph unicode="&#x2039;" horiz-adv-x="763" d="M84 541v16l344 459l238 -115l-267 -350l267 -350l-238 -119z" />
<glyph unicode="&#x203a;" horiz-adv-x="763" d="M98 197l267 350l-267 350l238 119l344 -459v-16l-344 -459z" />
<glyph unicode="&#x205f;" horiz-adv-x="477" />
<glyph unicode="&#x2122;" horiz-adv-x="1413" d="M53 1307v127h520v-127h-188v-504h-143v504h-189zM707 803v631h151l166 -267l166 267h147v-631h-135v426l-174 -277h-12l-174 277v-426h-135z" />
<glyph unicode="&#x25fc;" horiz-adv-x="1095" d="M0 0v1096h1096v-1096h-1096z" />
</font>
</defs>
</svg>
