<?xml version="1.0" standalone="no"?>
<!DOCTYPE svg PUBLIC "-//W3C//DTD SVG 1.1//EN" "http://www.w3.org/Graphics/SVG/1.1/DTD/svg11.dtd" >
<svg xmlns="http://www.w3.org/2000/svg">
<metadata></metadata>
<defs>
<font id="sanslightregular" horiz-adv-x="1310" >
<font-face units-per-em="2048" ascent="1638" descent="-410" />
<missing-glyph horiz-adv-x="614" />
<glyph horiz-adv-x="2048" />
<glyph horiz-adv-x="2048" />
<glyph unicode="&#xd;" horiz-adv-x="614" />
<glyph unicode=" "  horiz-adv-x="614" />
<glyph unicode="&#x09;" horiz-adv-x="614" />
<glyph unicode="&#xa0;" horiz-adv-x="614" />
<glyph unicode="!" horiz-adv-x="516" d="M190 0v174h136v-174h-136zM199 1434h118v-144l-30 -915h-58z" />
<glyph unicode="&#x22;" horiz-adv-x="839" d="M139 913l72 521h133v-11l-145 -510h-60zM508 913l72 521h133v-11l-146 -510h-59z" />
<glyph unicode="#" horiz-adv-x="1433" d="M100 383v96h265l84 484h-267v96h283l63 375h99l-64 -375h424l64 375h98l-64 -375h246v-96h-262l-84 -484h264v-96h-280l-66 -383h-98l65 383h-424l-65 -383h-98l65 383h-248zM463 479h424l84 484h-424z" />
<glyph unicode="$" horiz-adv-x="1294" d="M123 221l67 80q199 -186 422 -205v582q-201 45 -297 113q-137 96 -137 270v4q0 119 74 209q68 84 184 129q78 29 172 31v118h99v-122q207 -18 395 -168l-68 -80q-150 135 -332 155v-575q199 -41 302 -113q141 -96 141 -268v-4q0 -123 -72 -213t-188 -131 q-82 -29 -178 -33v-201h-99v203q-264 23 -485 219zM283 1069q0 -158 166 -233q63 -29 163 -54v559q-131 -4 -223 -67q-106 -76 -106 -201v-4zM702 92q238 6 316 170q23 49 22 107v4q0 162 -172 235q-66 27 -166 49v-565z" />
<glyph unicode="%" horiz-adv-x="1687" d="M113 1079v4q0 238 188 336q57 31 129 31q139 0 229 -115q84 -104 84 -248v-4q0 -147 -84 -254q-92 -112 -233 -112t-231 114q-82 104 -82 248zM219 1083q0 -123 62.5 -200.5t148.5 -77.5q141 0 193 168q14 49 14 106v4q0 182 -129 258q-39 20 -82 21q-139 0 -190 -168 q-16 -51 -17 -107v-4zM262 0l1053 1434h110l-1052 -1434h-111zM944 346v4q0 238 189 336q57 31 129 31q139 0 229 -115q84 -104 84 -248v-4q0 -147 -84 -254q-93 -112 -234 -112t-231 114q-82 104 -82 248zM1051 350q0 -123 62.5 -200.5t148.5 -77.5q141 0 192 168 q14 49 14 106v4q0 182 -129 258q-39 20 -82 21q-139 0 -190 -168q-16 -51 -16 -107v-4z" />
<glyph unicode="&#x26;" horiz-adv-x="1425" d="M100 377v4q0 283 371 420q-160 176 -160 327v5q0 147 109 239q102 86 250 86q100 0 182 -50t123 -140q25 -57 24 -121v-4q0 -250 -352 -371l377 -387q98 135 186 348l97 -39q-109 -244 -213 -381l264 -272l-84 -70l-248 256q-213 -248 -485 -247q-133 0 -240 59 q-113 61 -166 178q-35 72 -35 160zM207 381q0 -139 98.5 -224t237.5 -85q221 0 415 225l-423 438q-328 -113 -328 -350v-4zM418 1133q0 -94 88 -203q31 -41 78 -92q309 98 309 301v4q0 98 -64.5 161.5t-162.5 63.5q-104 0 -176 -63.5t-72 -167.5v-4z" />
<glyph unicode="'" horiz-adv-x="471" d="M139 913l72 521h133v-11l-145 -510h-60z" />
<glyph unicode="(" horiz-adv-x="880" d="M145 588q0 557 568 876l43 -67q-504 -309 -504 -809t504 -809l-43 -68q-567 319 -568 877z" />
<glyph unicode=")" horiz-adv-x="880" d="M125 -221q504 309 504 809t-504 809l43 67q567 -319 567 -876t-567 -877z" />
<glyph unicode="*" horiz-adv-x="880" d="M154 1020l241 115l-241 114l45 76l217 -147l-19 260h86l-18 -260l217 147l45 -76l-242 -114l242 -115l-45 -76l-217 148l18 -261h-86l19 261l-217 -148z" />
<glyph unicode="+" d="M160 672v98h444v440h103v-440h444v-98h-444v-441h-103v441h-444z" />
<glyph unicode="," horiz-adv-x="471" d="M109 -168q121 66 114 168h-55v174h135v-151q0 -96 -39 -151.5t-131 -90.5z" />
<glyph unicode="-" horiz-adv-x="835" d="M143 551v115h549v-115h-549z" />
<glyph unicode="." horiz-adv-x="471" d="M168 0v174h135v-174h-135z" />
<glyph unicode="/" horiz-adv-x="1024" d="M-37 -262l967 1896h100l-967 -1896h-100z" />
<glyph unicode="0" horiz-adv-x="1454" d="M133 713v4q0 309 162 520q170 221 434 221q203 0 352 -133q137 -121 199 -321q41 -135 41 -283v-4q0 -309 -162 -518q-170 -224 -434 -224q-203 0 -352 134q-137 121 -199 323q-41 133 -41 281zM244 717q0 -180 67 -334q76 -172 217 -256q90 -55 201 -55q166 0 289 123 q109 106 160 278q33 115 32 240v4q0 264 -131 448q-141 197 -354 197q-166 0 -289 -123q-109 -106 -157 -276q-35 -117 -35 -242v-4z" />
<glyph unicode="1" horiz-adv-x="686" d="M61 1323l328 121h82v-1444h-104v1333l-277 -94z" />
<glyph unicode="2" horiz-adv-x="1208" d="M98 0v80l535 483q172 156 248 268q70 106 69 222q0 98 -54 175t-146 111q-59 20 -123 21q-137 0 -244 -76q-86 -61 -176 -190l-80 53q104 158 215 227q123 80 295 80q131 0 235.5 -61.5t157.5 -175.5q33 -72 33 -156v-4q0 -199 -197 -402q-72 -74 -161 -155l-439 -398 h811v-102h-979z" />
<glyph unicode="3" horiz-adv-x="1249" d="M111 233l82 68q178 -229 446 -229q145 0 249.5 89t104.5 228v4q0 223 -268 291q-82 20 -178 21h-78l-27 59l494 569h-752v101h897v-76l-485 -555q348 -20 467 -234q41 -74 41 -172v-4q0 -186 -143 -305q-136 -113 -324 -113q-328 0 -526 258z" />
<glyph unicode="4" horiz-adv-x="1359" d="M98 430l820 1014h96v-1002h233v-92h-233v-350h-103v350h-776zM227 442h684v848z" />
<glyph unicode="5" horiz-adv-x="1239" d="M117 207l76 76q211 -211 430 -211q170 0 277.5 104.5t107.5 255.5v4q0 158 -121 254q-113 86 -273 86q-158 0 -323 -90l-82 53l41 695h805v-103h-711l-35 -536q156 78 318 77q147 0 266 -63q129 -68 188 -193q37 -80 37 -176v-4q0 -209 -149 -338q-142 -123 -351 -123 q-274 0 -501 232z" />
<glyph unicode="6" horiz-adv-x="1314" d="M131 678v4q0 330 160 553t424 223q213 0 413 -166l-67 -82q-172 152 -354 152q-219 0 -348.5 -207t-120.5 -537q160 266 448 267q143 0 266 -67.5t187 -190.5q41 -80 41 -176v-5q0 -207 -152 -342q-143 -129 -350 -129q-221 0 -363.5 142.5t-171.5 365.5q-12 84 -12 195z M281 432q0 -162 125 -264q116 -96 280 -96q119 0 215 60.5t141 166.5q27 68 27 143v4q0 156 -121 254q-111 90 -268 91q-119 0 -219.5 -59.5t-149.5 -166.5q-31 -63 -30 -129v-4z" />
<glyph unicode="7" horiz-adv-x="1202" d="M139 1331v103h951v-78l-654 -1356h-117l652 1331h-832z" />
<glyph unicode="8" horiz-adv-x="1290" d="M113 383v4q0 182 192 297q57 35 125 57q-117 45 -188 127q-80 92 -80 207v4q0 125 94 221q82 86 211 127q86 27 178 27q133 0 250 -55q129 -59 192 -166q41 -70 41 -154v-4q0 -115 -79 -207q-72 -82 -189 -127q133 -45 219 -129q98 -98 99 -225v-4q0 -139 -97 -240 q-86 -92 -225 -133q-98 -30 -211 -30q-227 0 -379.5 113.5t-152.5 289.5zM223 379q0 -125 113 -211q116 -92 309 -92t311 92q111 86 111 211v4q0 106 -80 184q-68 68 -176 101q-78 23 -166 22q-283 0 -389 -182q-33 -57 -33 -125v-4zM272 1075q0 -100 68 -174 q61 -68 162 -98q67 -23 143 -23q106 0 197 43q98 45 147 133q29 53 29 119v4q0 96 -68 166q-61 63 -157 92q-70 20 -148 21q-252 0 -344 -166q-29 -51 -29 -113v-4z" />
<glyph unicode="9" horiz-adv-x="1314" d="M135 973v4q0 211 150 348q143 133 354 133q285 0 440 -237q68 -109 92 -275q12 -86 13 -192v-4q0 -338 -167 -556.5t-417 -218.5q-221 0 -432 179l68 82q184 -164 366 -164q217 0 352.5 208.5t122.5 530.5q-154 -276 -446 -276q-217 0 -356.5 126.5t-139.5 311.5z M246 977q0 -160 119 -256q110 -92 270 -92q121 0 223.5 61.5t149.5 169.5q27 66 26 133v4q0 164 -121.5 264.5t-285.5 100.5q-121 0 -216.5 -63.5t-138.5 -174.5q-27 -70 -26 -143v-4z" />
<glyph unicode=":" horiz-adv-x="491" d="M178 0v174h135v-174h-135zM178 870v174h135v-174h-135z" />
<glyph unicode=";" horiz-adv-x="491" d="M119 -168q121 66 114 168h-55v174h135v-151q0 -96 -38.5 -151.5t-131.5 -90.5zM178 870v174h135v-174h-135z" />
<glyph unicode="&#x3c;" d="M150 680v82l950 493v-110l-826 -422l826 -426v-111z" />
<glyph unicode="=" d="M190 438v105h930v-105h-930zM190 899v105h930v-105h-930z" />
<glyph unicode="&#x3e;" d="M211 186v111l825 422l-825 426v110l950 -493v-82z" />
<glyph unicode="?" horiz-adv-x="1093" d="M70 1208q199 244 473 244q199 0 321.5 -115.5t122.5 -283.5v-4q0 -274 -266 -377q-80 -31 -168 -41l-18 -256h-66l-27 332l11 10q178 4 290 74q135 86 136 253v5q0 141 -99.5 225t-240.5 84q-223 0 -396 -211zM434 0v174h135v-174h-135z" />
<glyph unicode="@" horiz-adv-x="2007" d="M109 561q0 373 263 635t634 262q264 0 487 -131q227 -137 338 -371q68 -147 67 -309q0 -244 -120 -379q-104 -119 -252 -118q-221 0 -279 190q-150 -190 -350 -190q-158 0 -260 105t-102 259t82.5 281t224.5 190q84 39 170 39q166 0 260 -117q27 -33 45 -65l29 153 l98 -12l-76 -432q-18 -104 -18 -148q0 -180 184 -180q119 0 203 101q92 113 92 323q0 291 -236 514q-246 231 -587 232q-354 0 -591 -244t-237 -588q0 -358 244 -592.5t600 -234.5q274 0 512 139l31 -51q-254 -154 -543 -154q-387 0 -650 260t-263 633zM641 522 q0 -127 72.5 -201.5t199.5 -74.5q141 0 255 121.5t114 273.5q0 121 -77 203t-193 82q-143 0 -254 -115q-117 -121 -117 -289z" />
<glyph unicode="A" horiz-adv-x="1617" d="M90 0l668 1444h102l668 -1444h-117l-182 401h-846l-182 -401h-111zM428 498h756l-377 829z" />
<glyph unicode="B" horiz-adv-x="1478" d="M213 0v1434h592q246 0 373 -127q92 -92 92 -226v-4q0 -133 -78 -225q-57 -68 -166 -115q223 -57 297 -211q27 -57 27 -131v-4q0 -274 -303 -362q-94 -29 -211 -29h-623zM319 98h521q162 0 270 64q131 78 131 229v4q0 279 -436 279h-486v-576zM319 772h474q256 0 342 168 q26 53 26 122v5v4q0 139 -114 207q-96 57 -244 57h-484v-563z" />
<glyph unicode="C" horiz-adv-x="1511" d="M150 713v4q0 309 205.5 525t510.5 216q254 0 445 -135q57 -43 112 -94l-75 -78q-160 154 -334 195q-70 16 -150 16q-264 0 -438 -193q-166 -184 -166 -448v-4q0 -193 96 -352q98 -166 271 -242q111 -51 239 -51q270 0 494 223l72 -70q-190 -184 -396 -231 q-80 -19 -174 -19q-223 0 -400 121t-259 328q-53 135 -53 289z" />
<glyph unicode="D" horiz-adv-x="1601" d="M213 0v1434h477q334 0 551 -205q211 -201 211 -508v-4q0 -322 -225 -522q-217 -195 -537 -195h-477zM319 98h371q293 0 475 181q176 172 176 434v4q0 276 -192 450q-184 168 -459 168h-371v-1237z" />
<glyph unicode="E" horiz-adv-x="1372" d="M213 0v1434h1020v-99h-914v-563h822v-98h-822v-576h924v-98h-1030z" />
<glyph unicode="F" horiz-adv-x="1343" d="M213 0v1434h1010v-99h-904v-587h811v-99h-811v-649h-106z" />
<glyph unicode="G" horiz-adv-x="1605" d="M150 713v4q0 303 194 516q205 225 514 225q240 0 416 -108q55 -35 108 -80l-69 -80q-197 172 -461 172q-260 0 -430 -195q-162 -184 -162 -446v-4q0 -287 164 -463q172 -184 450 -184q262 0 457 163v412h-479v98h582v-553q-247 -215 -564 -215q-332 0 -530 218 q-190 207 -190 520z" />
<glyph unicode="H" horiz-adv-x="1556" d="M213 0v1434h106v-664h918v664h106v-1434h-106v672h-918v-672h-106z" />
<glyph unicode="I" horiz-adv-x="561" d="M227 0v1434h107v-1434h-107z" />
<glyph unicode="J" horiz-adv-x="1124" d="M76 248l88 55q70 -117 143 -168q86 -59 209 -59q217 0 289 217q22 69 22 158v8v975h107v-967q0 -242 -131 -373q-115 -114 -293 -114q-287 0 -434 268z" />
<glyph unicode="K" horiz-adv-x="1464" d="M213 0v1434h106v-942l914 942h145l-626 -633l653 -801h-139l-590 725l-357 -360v-365h-106z" />
<glyph unicode="L" horiz-adv-x="1267" d="M213 0v1434h106v-1336h842v-98h-948z" />
<glyph unicode="M" horiz-adv-x="1777" d="M213 0v1434h100l576 -848l575 848h101v-1434h-107v1245l-567 -825h-8l-568 825v-1245h-102z" />
<glyph unicode="N" horiz-adv-x="1617" d="M213 0v1434h100l990 -1248v1248h102v-1434h-80l-1010 1274v-1274h-102z" />
<glyph unicode="O" horiz-adv-x="1740" d="M150 713v4q0 313 207.5 527t514.5 214q315 0 523 -221q197 -213 196 -516q1 -1 1 -2t-1 -2q0 -313 -208 -527.5t-515 -214.5q-315 0 -522 224q-197 211 -196 514zM260 717q0 -195 96 -352q98 -164 271 -242q112 -51 245 -51q266 0 441 190q168 184 168 451v4 q0 195 -97.5 355.5t-269.5 238.5q-113 51 -246 51q-266 0 -437 -187.5t-171 -453.5v-4z" />
<glyph unicode="P" horiz-adv-x="1368" d="M213 0v1434h520q240 0 386.5 -117t146.5 -322v-4q0 -223 -176 -348q-153 -108 -379 -108h-4h-388v-535h-106zM319 633h394q203 0 324.5 96t121.5 256v4q0 178 -135 268q-117 78 -299 78h-406v-702z" />
<glyph unicode="Q" horiz-adv-x="1740" d="M150 713v4q0 313 207.5 527t514.5 214q315 0 523 -221q197 -213 196 -516q2 -2 0 -4q0 -297 -188 -506l205 -172l-76 -82l-201 182q-195 -164 -463 -164q-315 0 -522 224q-197 211 -196 514zM260 717q0 -195 96 -352q98 -164 271 -242q112 -51 245 -51q219 0 381 135 l-278 237l76 84l274 -249q156 182 156 434v4q0 195 -97.5 355.5t-269.5 238.5q-113 51 -246 51q-266 0 -437 -187.5t-171 -453.5v-4z" />
<glyph unicode="R" horiz-adv-x="1480" d="M213 0v1434h602q262 0 404 -142q109 -109 108 -266v-4q0 -178 -127 -289q-111 -96 -293 -121l473 -612h-135l-457 594h-469v-594h-106zM319 690h484q287 0 387 191q31 59 31 137v4q0 164 -129 246q-107 67 -278 67h-5h-490v-645z" />
<glyph unicode="S" d="M121 209l69 80q229 -213 515 -213q248 0 335 172q27 51 27 112v5q0 100 -57 161q-45 49 -148 90q-68 25 -210 57t-212 60q-184 70 -235 195q-27 63 -27 145v4q0 123 80 219q76 88 197 129q84 29 184 29q276 0 491 -174l-67 -84q-188 162 -428 162q-156 0 -253 -78 t-97 -193v-4q0 -102 57 -165q47 -51 152 -91q84 -31 208 -57q213 -43 320 -115q152 -100 152 -280v-4q0 -131 -80 -230q-76 -90 -203 -133q-89 -28 -193 -28q-319 0 -577 229z" />
<glyph unicode="T" horiz-adv-x="1327" d="M111 1335v99h1106v-99h-500v-1335h-107v1335h-499z" />
<glyph unicode="U" horiz-adv-x="1556" d="M190 596v838h107v-828q0 -246 119 -385q127 -147 366 -147q221 0 349.5 134t128.5 388v838h106v-826q0 -301 -161 -466t-427 -165q-264 0 -422 160q-166 164 -166 459z" />
<glyph unicode="V" horiz-adv-x="1536" d="M90 1434h119l561 -1319l563 1319h113l-631 -1444h-94z" />
<glyph unicode="W" horiz-adv-x="2256" d="M102 1434h119l451 -1276l420 1280h82l419 -1280l451 1276h110l-520 -1444h-86l-420 1245l-419 -1245h-86z" />
<glyph unicode="X" horiz-adv-x="1478" d="M104 0l572 731l-551 703h127l489 -631l488 631h125l-549 -701l569 -733h-127l-510 662l-508 -662h-125z" />
<glyph unicode="Y" horiz-adv-x="1466" d="M66 1434h133l536 -770l539 770h127l-615 -865v-569h-106v567z" />
<glyph unicode="Z" horiz-adv-x="1409" d="M139 0v59l981 1278h-946v97h1098v-60l-981 -1278h981v-96h-1133z" />
<glyph unicode="[" horiz-adv-x="880" d="M201 -266v1700h559v-78h-465v-1544h465v-78h-559z" />
<glyph unicode="\" horiz-adv-x="1024" d="M-6 1634h100l967 -1896h-100z" />
<glyph unicode="]" horiz-adv-x="880" d="M121 -188h465v1544h-465v78h559v-1700h-559v78z" />
<glyph unicode="^" horiz-adv-x="1024" d="M143 1010l324 430h90l324 -430h-109l-262 342l-262 -342h-105z" />
<glyph unicode="_" horiz-adv-x="1228" d="M-4 -238h1237v-90h-1237v90z" />
<glyph unicode="`" horiz-adv-x="1024" d="M322 1430l124 61l181 -272h-86z" />
<glyph unicode="a" horiz-adv-x="1175" d="M104 303v4q0 246 271 318q80 22 178 22h8q180 0 346 -45v45q0 319 -344 320q-164 0 -327 -84l-37 88q188 90 370 90q203 0 320 -104.5t117 -305.5v-651h-99v174q-143 -199 -399 -199q-162 0 -277 82q-127 92 -127 246zM211 309q0 -115 98 -180q86 -59 205 -59 q113 0 209 47q104 51 156 143q31 59 30 131v119q-188 47 -354 47q-139 0 -231 -51q-113 -63 -113 -193v-4z" />
<glyph unicode="b" horiz-adv-x="1351" d="M190 0v1495h101v-684q166 258 430 258q201 0 348 -143q160 -156 160 -400v-4q0 -244 -160 -399q-149 -148 -348 -148q-211 0 -354 156q-43 45 -76 94v-225h-101zM285 520q0 -139 70.5 -250.5t197.5 -165.5q76 -32 158 -32q190 0 303 133q106 125 106 313v4 q0 203 -121 330q-119 121 -288 121q-129 0 -233.5 -74t-155.5 -192q-37 -82 -37 -183v-4z" />
<glyph unicode="c" horiz-adv-x="1169" d="M119 518v4q0 223 155.5 385t376.5 162q197 0 340 -119q41 -35 78 -73l-72 -74q-168 172 -348 172q-182 0 -302 -133t-120 -316v-4q0 -186 124 -319t306 -133q195 0 351 174l69 -62q-184 -207 -426 -207q-223 0 -377.5 161t-154.5 382z" />
<glyph unicode="d" horiz-adv-x="1351" d="M123 518v4q0 244 160 402q150 145 348 145q211 0 356 -156q41 -45 74 -94v676h100v-1495h-100v233q-123 -182 -287 -237q-65 -21 -143 -21q-201 0 -348 144q-160 156 -160 399zM231 522q0 -203 123 -327q117 -123 287 -123q129 0 233.5 73.5t157.5 192.5q35 82 35 182v4 q0 139 -70.5 251t-195.5 165q-78 33 -160 33q-190 0 -303 -133q-106 -125 -107 -314v-4z" />
<glyph unicode="e" horiz-adv-x="1196" d="M119 520v4q0 162 78.5 298t220.5 204q90 43 196 43q223 0 357 -168q123 -154 123 -379v-20q0 -8 -2 -21h-867q12 -184 135 -303q112 -108 272 -108h3q205 0 358 163l70 -61q-182 -197 -432 -197q-225 0 -373 164q-139 156 -139 381zM225 571h760q-14 176 -106 285 q-102 121 -269 121q-162 0 -272 -125q-100 -117 -113 -281z" />
<glyph unicode="f" horiz-adv-x="741" d="M100 952v92h152v103q0 160 74 254q82 100 237 100q86 0 156 -24v-95q-84 27 -156 27q-211 0 -211 -264v-101h365v-92h-365v-952h-100v952h-152z" />
<glyph unicode="g" horiz-adv-x="1351" d="M123 569v4q0 156 86 281t231 180q90 35 185 35q215 0 360 -145q43 -43 76 -88v208h100v-882q0 -221 -133 -355q-139 -139 -379 -139q-264 0 -479 160l59 82q190 -147 422 -148q184 0 297 105.5t113 300.5v151q-171 -241 -434 -241h-2q-209 0 -355.5 143.5t-146.5 347.5z M231 573q0 -125 67 -224t183 -144q74 -31 154 -31q174 0 303 113.5t129 283.5v4q0 174 -133 289q-125 109 -299 109q-176 0 -290 -111.5t-114 -283.5v-5z" />
<glyph unicode="h" horiz-adv-x="1255" d="M190 0v1495h101v-645q127 219 377 219q195 0 309 -121q109 -117 108 -309v-639h-100v621q0 162 -86 259t-246 97t-261 -107.5t-101 -265.5v-604h-101z" />
<glyph unicode="i" horiz-adv-x="509" d="M193 1317v137h124v-137h-124zM205 0v1044h100v-1044h-100z" />
<glyph unicode="j" horiz-adv-x="509" d="M-2 -238q27 -6 82 -6q125 0 125 146v1142h100v-1136q0 -242 -223 -242q-43 0 -84 8v88zM193 1317v137h124v-137h-124z" />
<glyph unicode="k" horiz-adv-x="1146" d="M190 0v1495h101v-1120l647 669h133l-457 -462l471 -582h-127l-413 510l-254 -256v-254h-101z" />
<glyph unicode="l" horiz-adv-x="509" d="M205 0v1495h100v-1495h-100z" />
<glyph unicode="m" horiz-adv-x="1947" d="M190 0v1044h101v-186q127 211 348 211q190 0 299 -139q31 -41 53 -86q129 225 377 225q193 0 301 -127q100 -119 100 -309v-633h-100v621q0 160 -74 253q-80 102 -235 103q-154 0 -246 -111q-84 -104 -84 -258v-608h-100v627q0 154 -74 247q-82 102 -231 103 q-147 0 -244 -117q-90 -109 -90 -258v-602h-101z" />
<glyph unicode="n" horiz-adv-x="1255" d="M190 0v1044h101v-194q127 219 377 219q195 0 309 -121q109 -117 108 -309v-639h-100v621q0 162 -86 259t-246 97t-261 -107.5t-101 -265.5v-604h-101z" />
<glyph unicode="o" d="M119 518v4q0 227 156.5 387t381.5 160q227 0 381 -158.5t154 -384.5v-4q0 -227 -157 -387t-382 -160q-227 0 -380.5 159t-153.5 384zM227 522q0 -137 70 -250.5t192 -167.5q78 -34 168 -34q186 0 308 135q119 129 118 313v4q0 137 -69.5 251t-190.5 167q-80 35 -170 35 q-186 0 -306 -132t-120 -317v-4z" />
<glyph unicode="p" horiz-adv-x="1351" d="M190 -328v1372h101v-233q166 258 430 258q201 0 348 -143q160 -156 160 -400v-4q0 -244 -160 -399q-150 -147 -348 -148q-211 0 -354 156q-43 45 -76 94v-553h-101zM285 520q0 -139 70.5 -250.5t197.5 -165.5q76 -32 158 -32q190 0 303 133q106 125 106 313v4 q0 203 -121 330q-119 121 -288 121q-129 0 -233.5 -74t-155.5 -192q-37 -82 -37 -183v-4z" />
<glyph unicode="q" horiz-adv-x="1351" d="M123 518v4q0 244 160 402q150 145 348 145q211 0 356 -156q41 -45 74 -94v225h100v-1372h-100v561q-123 -182 -287 -237q-66 -20 -143 -21q-201 0 -348 144q-160 156 -160 399zM231 522q0 -203 123 -327q117 -123 287 -123q129 0 233.5 73.5t157.5 192.5q35 82 35 182v4 q0 139 -70.5 251t-195.5 165q-78 33 -160 33q-190 0 -303 -133q-106 -125 -107 -314v-4z" />
<glyph unicode="r" horiz-adv-x="819" d="M190 0v1044h101v-296q65 147 187 232q116 81 262 81h14v-111h-11q-147 0 -254.5 -79.5t-160.5 -217.5q-37 -98 -37 -225v-428h-101z" />
<glyph unicode="s" horiz-adv-x="1017" d="M100 131l60 80q180 -137 375 -137q102 0 172 47q80 55 79 151v4q0 119 -194 185q-84 25 -168 49q-102 33 -158 68q-115 70 -114 194v4q0 94 57 168q55 68 147 100q63 20 140 21q203 0 370 -115l-53 -84q-160 104 -321 105q-94 0 -160 -43q-78 -49 -78 -140v-4 q0 -78 90 -129q53 -31 201 -73q86 -25 121 -39q68 -25 114 -56q109 -76 109 -198v-4q0 -143 -113 -230q-103 -75 -248 -75q-240 0 -428 151z" />
<glyph unicode="t" horiz-adv-x="819" d="M94 952v92h152v334h100v-334h367v-92h-367v-673q0 -203 209 -203q72 0 154 37v-95q-82 -36 -170 -36q-139 0 -216 75.5t-77 210.5v684h-152z" />
<glyph unicode="u" horiz-adv-x="1255" d="M170 406v638h100v-620q0 -162 86 -259t246 -97t261.5 107.5t101.5 264.5v604h100v-1044h-100v195q-127 -220 -377 -220q-195 0 -306.5 119t-111.5 312z" />
<glyph unicode="v" horiz-adv-x="1191" d="M84 1044h117l395 -931l399 931h113l-469 -1052h-86z" />
<glyph unicode="w" horiz-adv-x="1763" d="M100 1044h113l315 -917l316 922h80l315 -922l315 917h109l-383 -1052h-86l-311 895l-314 -895h-86z" />
<glyph unicode="x" horiz-adv-x="1167" d="M92 0l428 532l-411 512h124l353 -442l352 442h121l-412 -509l428 -535h-125l-368 465l-369 -465h-121z" />
<glyph unicode="y" horiz-adv-x="1204" d="M80 1044h117l434 -933l377 933h110l-452 -1081q-126 -297 -349 -297q-100 0 -206 45l34 88q78 -39 179 -39q121 0 200 131q29 47 58 115z" />
<glyph unicode="z" horiz-adv-x="1134" d="M119 0v57l753 897h-725v90h875v-57l-754 -897h754v-90h-903z" />
<glyph unicode="{" horiz-adv-x="983" d="M121 549v78h53q137 0 197 71q49 59 49 189v162q0 174 80 262q92 102 352 153l14 -65q-229 -59 -291 -133q-55 -66 -55 -230v-153q0 -186 -125 -258q-39 -23 -88 -37q117 -37 165 -105.5t48 -189.5v-154q0 -164 55 -229q61 -74 291 -133l-14 -66q-260 51 -352 154 q-80 88 -80 262v162q0 135 -58.5 197.5t-187.5 62.5h-53z" />
<glyph unicode="|" horiz-adv-x="585" d="M248 -262v1896h90v-1896h-90z" />
<glyph unicode="}" horiz-adv-x="983" d="M117 -223q229 59 291 133q55 66 55 229v154q0 186 125 258q39 23 88 37q-117 37 -165 105.5t-48 189.5v153q0 164 -55 230q-61 74 -291 133l14 65q260 -51 354 -153q78 -88 78 -262v-162q0 -135 58.5 -197.5t187.5 -62.5h53v-78h-53q-137 0 -195 -70q-51 -61 -51 -190 v-162q0 -174 -78 -262q-94 -102 -354 -154z" />
<glyph unicode="~" horiz-adv-x="942" d="M168 514q49 190 172 191q37 0 134 -42t128 -42q63 0 103 102l69 -18q-49 -190 -172 -191q-37 0 -134 42t-128 42q-63 0 -102 -102z" />
<glyph unicode="&#xa1;" horiz-adv-x="516" d="M190 1260v174h136v-174h-136zM199 0v143l30 916h58l30 -1059h-118z" />
<glyph unicode="&#xa2;" horiz-adv-x="1189" d="M127 723v4q0 223 155.5 385t376.5 162h31l33 172h102l-37 -186q152 -37 289 -179l-71 -73q-125 129 -242 157l-170 -884q33 -6 72 -7q195 0 350 175l69 -62q-184 -207 -426 -207q-41 0 -79 6l-39 -198h-103l45 223q-160 53 -258 197.5t-98 314.5zM236 727 q0 -139 72.5 -255t199.5 -167l168 875h-19q-182 0 -301.5 -133.5t-119.5 -315.5v-4z" />
<glyph unicode="&#xa3;" horiz-adv-x="1318" d="M143 0v51l176 41v533h-176v98h176v242q0 238 134 370q119 119 307 119q215 0 354 -131q41 -41 76 -86l-82 -63q-145 184 -350 184q-168 0 -254 -115q-80 -102 -80 -276v-244h610v-98h-610v-529h766v-96h-1047z" />
<glyph unicode="&#xa4;" horiz-adv-x="1474" d="M121 502v98h170q-6 55 -6 113v4q0 63 10 135h-174v98h192q84 350 363 471q88 37 186 37q170 0 295 -82q106 -70 197 -205l-82 -55q-86 125 -176 182q-100 66 -238 66q-231 0 -373 -248q-43 -76 -67 -166h581v-98h-600q-10 -72 -10 -131v-4q0 -59 6 -117h604v-98h-585 q78 -303 309 -400q74 -33 160 -32q227 0 397 262l78 -51q-196 -306 -481 -306q-160 0 -288 84t-204 230q-53 96 -80 213h-184z" />
<glyph unicode="&#xa5;" horiz-adv-x="1404" d="M66 1434h129l510 -764l512 764h122l-551 -793h402v-92h-436v-201h436v-92h-436v-256h-103v256h-436v92h436v201h-436v92h399z" />
<glyph unicode="&#xa7;" horiz-adv-x="1294" d="M133 743v5q0 104 105 167q80 49 198 64q-176 76 -176 215v4q0 133 121 201q96 55 240 55q270 0 464 -194l-77 -74q-168 168 -398 168q-94 0 -155 -31q-82 -41 -82 -127v-4q0 -68 82 -117t293 -100q227 -55 320 -118.5t93 -166.5v-4q0 -104 -104 -168q-80 -49 -199 -63 q176 -76 176 -215v-4q0 -133 -121 -201q-96 -55 -239 -55q-270 0 -465 194l78 74q168 -168 397 -168q94 0 156 31q82 41 82 127v4q0 68 -82 116q-96 55 -293 101q-330 78 -391 194q-23 41 -23 90zM240 752q0 -59 67.5 -106.5t253.5 -94.5q128 -33 230 -33q182 0 245 100 q18 29 19 60v4q0 59 -64 104q-74 49 -258 97q-129 33 -229 32q-180 0 -246 -100q-18 -29 -18 -59v-4z" />
<glyph unicode="&#xa8;" horiz-adv-x="1024" d="M274 1219v163h142v-163h-142zM608 1219v163h142v-163h-142z" />
<glyph unicode="&#xa9;" horiz-adv-x="1699" d="M109 713v4q0 309 219 525t524 216q309 0 524 -216t215 -521v-4q0 -309 -219 -525.5t-524 -216.5q-309 0 -524 216.5t-215 521.5zM170 713q0 -289 196.5 -484.5t481.5 -195.5q287 0 484.5 199.5t197.5 484.5v4q0 289 -196.5 484.5t-481.5 195.5q-287 0 -484.5 -200 t-197.5 -484v-4zM485 725v4q0 160 110 273.5t265 113.5q154 0 289 -125l-62 -63q-111 106 -229 106q-123 0 -203 -90t-80 -213v-4q0 -123 82 -214t203 -91q125 0 236 106l57 -57q-131 -131 -295 -131q-158 0 -265.5 113.5t-107.5 271.5z" />
<glyph unicode="&#xaa;" horiz-adv-x="798" d="M127 600v82h516v-82h-516zM133 1026v4q0 98 82 150q68 41 172 41q94 0 170 -23v10q0 158 -170 158q-78 0 -180 -49l-27 69q115 53 211 54q242 0 242 -230v-356h-76v84q-74 -96 -201 -96q-90 0 -153 47q-70 51 -70 137zM215 1030q0 -55 47 -88q39 -27 98 -27 q76 0 136.5 43t60.5 115v55q-76 23 -174 23q-66 0 -111 -25q-57 -33 -57 -92v-4z" />
<glyph unicode="&#xab;" horiz-adv-x="1054" d="M104 514v16l328 428l76 -49l-281 -385l281 -389l-76 -49zM522 514v16l328 428l76 -49l-281 -385l281 -389l-76 -49z" />
<glyph unicode="&#xad;" horiz-adv-x="835" d="M143 551v115h549v-115h-549z" />
<glyph unicode="&#xae;" horiz-adv-x="1699" d="M109 713v4q0 309 219 525t524 216q309 0 524 -216t215 -521v-4q0 -309 -219 -525.5t-524 -216.5q-309 0 -524 216.5t-215 521.5zM170 713q0 -289 196.5 -484.5t481.5 -195.5q287 0 484.5 199.5t197.5 484.5v4q0 289 -196.5 484.5t-481.5 195.5q-287 0 -484.5 -200 t-197.5 -484v-4zM565 362v750h336q199 0 260 -135q16 -37 17 -80v-4q0 -178 -205 -215l250 -316h-115l-238 302h-217v-302h-88zM653 745h234q199 0 198 144v4q0 70 -61 106q-51 29 -127 29h-244v-283z" />
<glyph unicode="&#xaf;" horiz-adv-x="1024" d="M205 1229v108h614v-108h-614z" />
<glyph unicode="&#xb0;" horiz-adv-x="921" d="M152 1143v4q0 121 94 210t215 89t215 -90t94 -209v-4q0 -121 -94 -210t-215 -89t-215 90t-94 209zM254 1143q0 -86 60.5 -147.5t146.5 -61.5t146.5 61.5t60.5 147.5v4q0 86 -60.5 147.5t-146.5 61.5t-146.5 -61.5t-60.5 -147.5v-4z" />
<glyph unicode="&#xb1;" horiz-adv-x="1228" d="M92 240l86 63q174 -231 447 -231q250 0 338 180q27 55 26 123v4q0 160 -139 235q-111 61 -285 62h-143v94h145q260 0 355 172q29 55 28 127v4q0 199 -202 268q-63 20 -142 21q-240 0 -399 -219l-82 49q180 266 485 266q195 0 323 -108.5t128 -272.5v-4q0 -137 -86 -227 q-70 -74 -187 -113q311 -88 312 -352v-4q0 -129 -84 -232q-76 -92 -203 -137q-88 -33 -192 -33q-330 0 -529 265z" />
<glyph unicode="&#xb4;" horiz-adv-x="1024" d="M397 1219l181 272l124 -61l-219 -211h-86z" />
<glyph unicode="&#xb6;" horiz-adv-x="983" d="M109 999v5q0 213 165 329q145 100 365 101h152v-1434h-109v567h-12q-246 0 -400 113q-162 119 -161 319z" />
<glyph unicode="&#xb7;" horiz-adv-x="471" d="M168 522v174h135v-174h-135z" />
<glyph unicode="&#xb8;" horiz-adv-x="1024" d="M332 -250l184 270h88l-160 -323z" />
<glyph unicode="&#xba;" horiz-adv-x="798" d="M104 600v82h590v-82h-590zM104 1139v4q0 127 86 214t211 87t209 -86t84 -211v-4q0 -125 -86 -213t-211 -88t-209 86t-84 211zM193 1143q0 -92 59 -156.5t149 -64.5q92 0 148.5 62.5t56.5 154.5v4q0 90 -60.5 155.5t-148.5 65.5q-92 0 -148 -62.5t-56 -154.5v-4z" />
<glyph unicode="&#xbb;" horiz-adv-x="1054" d="M129 135l281 385l-281 389l76 49l327 -428v-16l-327 -428zM547 135l280 385l-280 389l76 49l327 -428v-16l-327 -428z" />
<glyph unicode="&#xbf;" horiz-adv-x="1093" d="M106 381v4q0 182 132 297q117 100 303 121l18 256h66l26 -332l-10 -10q-178 -4 -291 -74q-135 -86 -135 -254v-4q0 -141 102 -227q96 -82 238 -82q223 0 395 211l74 -62q-190 -243 -473 -243q-199 0 -324 118q-121 113 -121 281zM524 1260v174h135v-174h-135z" />
<glyph unicode="&#xc0;" horiz-adv-x="1617" d="M90 0l668 1444h102l668 -1444h-117l-182 401h-846l-182 -401h-111zM428 498h756l-377 829zM539 1778l125 61l180 -272h-86z" />
<glyph unicode="&#xc1;" horiz-adv-x="1617" d="M90 0l668 1444h102l668 -1444h-117l-182 401h-846l-182 -401h-111zM428 498h756l-377 829zM774 1567l180 272l125 -61l-219 -211h-86z" />
<glyph unicode="&#xc2;" horiz-adv-x="1617" d="M90 0l668 1444h102l668 -1444h-117l-182 401h-846l-182 -401h-111zM428 498h756l-377 829zM563 1556l205 250h82l205 -250h-97l-151 140l-152 -140h-92z" />
<glyph unicode="&#xc3;" horiz-adv-x="1617" d="M90 0l668 1444h102l668 -1444h-117l-182 401h-846l-182 -401h-111zM428 498h756l-377 829zM506 1567q49 190 172 190q37 0 134 -42t128 -42q63 0 102 103l70 -19q-49 -190 -172 -190q-37 0 -134 42t-128 42q-63 0 -103 -103z" />
<glyph unicode="&#xc4;" horiz-adv-x="1617" d="M90 0l668 1444h102l668 -1444h-117l-182 401h-846l-182 -401h-111zM428 498h756l-377 829zM571 1567v164h142v-164h-142zM905 1567v164h142v-164h-142z" />
<glyph unicode="&#xc5;" horiz-adv-x="1617" d="M90 0l641 1386q-123 51 -123 177v4q0 78 60.5 134t140.5 56t140.5 -56t60.5 -134v-4q0 -123 -123 -174l641 -1389h-117l-182 401h-846l-182 -401h-111zM428 498h756l-377 829zM682 1563q0 -51 38 -88t89 -37t89 36.5t38 88.5v4q0 53 -37 89t-90 36t-90 -36t-37 -89v-4z " />
<glyph unicode="&#xc6;" horiz-adv-x="2140" d="M41 0l868 1434h1092v-99h-883v-563h791v-98h-791v-576h893v-98h-999v401h-615l-241 -401h-115zM455 498h557v839h-54z" />
<glyph unicode="&#xc7;" horiz-adv-x="1511" d="M150 713v4q0 309 205.5 525t510.5 216q254 0 445 -135q57 -43 112 -94l-75 -78q-160 154 -334 195q-70 16 -150 16q-264 0 -438 -193q-166 -184 -166 -448v-4q0 -193 96 -352q98 -166 271 -242q111 -51 239 -51q270 0 494 223l72 -70q-186 -180 -377 -229 q-76 -18 -166 -21l-137 -278l-113 53l156 227q-285 25 -467 242q-178 209 -178 494z" />
<glyph unicode="&#xc8;" horiz-adv-x="1372" d="M213 0v1434h1020v-99h-914v-563h822v-98h-822v-576h924v-98h-1030zM496 1778l125 61l180 -272h-86z" />
<glyph unicode="&#xc9;" horiz-adv-x="1372" d="M213 0v1434h1020v-99h-914v-563h822v-98h-822v-576h924v-98h-1030zM633 1567l180 272l125 -61l-219 -211h-86z" />
<glyph unicode="&#xca;" horiz-adv-x="1372" d="M213 0v1434h1020v-99h-914v-563h822v-98h-822v-576h924v-98h-1030zM469 1567l205 250h82l205 -250h-97l-151 139l-152 -139h-92z" />
<glyph unicode="&#xcb;" horiz-adv-x="1372" d="M213 0v1434h1020v-99h-914v-563h822v-98h-822v-576h924v-98h-1030zM477 1567v164h141v-164h-141zM811 1567v164h141v-164h-141z" />
<glyph unicode="&#xcc;" horiz-adv-x="561" d="M14 1778l125 61l180 -272h-86zM227 0v1434h107v-1434h-107z" />
<glyph unicode="&#xcd;" horiz-adv-x="561" d="M227 0v1434h107v-1434h-107zM242 1567l180 272l125 -61l-219 -211h-86z" />
<glyph unicode="&#xce;" horiz-adv-x="561" d="M37 1567l205 250h82l204 -250h-96l-151 139l-152 -139h-92zM227 0v1434h107v-1434h-107z" />
<glyph unicode="&#xcf;" horiz-adv-x="561" d="M45 1567v164h141v-164h-141zM227 0v1434h107v-1434h-107zM379 1567v164h141v-164h-141z" />
<glyph unicode="&#xd0;" horiz-adv-x="1662" d="M121 672v98h153v664h478q334 0 551 -205q211 -201 210 -508v-4q0 -322 -225 -522q-217 -195 -536 -195h-478v672h-153zM381 98h371q293 0 475 181q176 172 176 434v4q0 276 -193 450q-184 168 -458 168h-371v-565h475v-98h-475v-574z" />
<glyph unicode="&#xd1;" horiz-adv-x="1617" d="M213 0v1434h100l990 -1248v1248h102v-1434h-80l-1010 1274v-1274h-102zM506 1567q49 190 172 190q37 0 134 -42t128 -42q63 0 102 103l70 -19q-49 -190 -172 -190q-37 0 -134 42t-128 42q-63 0 -103 -103z" />
<glyph unicode="&#xd2;" horiz-adv-x="1740" d="M150 713v4q0 313 207.5 527t514.5 214q315 0 523 -221q197 -213 196 -516q2 -2 0 -4q0 -313 -208 -527.5t-515 -214.5q-315 0 -522 224q-197 211 -196 514zM260 717q0 -195 96 -352q98 -164 271 -242q112 -51 245 -51q266 0 441 190q168 184 168 451v4q0 195 -97.5 355.5 t-269.5 238.5q-113 51 -246 51q-266 0 -437 -187.5t-171 -453.5v-4zM598 1778l125 61l180 -272h-86z" />
<glyph unicode="&#xd3;" horiz-adv-x="1740" d="M150 713v4q0 313 207.5 527t514.5 214q315 0 523 -221q197 -213 196 -516q2 -2 0 -4q0 -313 -208 -527.5t-515 -214.5q-315 0 -522 224q-197 211 -196 514zM260 717q0 -195 96 -352q98 -164 271 -242q112 -51 245 -51q266 0 441 190q168 184 168 451v4q0 195 -97.5 355.5 t-269.5 238.5q-113 51 -246 51q-266 0 -437 -187.5t-171 -453.5v-4zM838 1567l180 272l125 -61l-219 -211h-86z" />
<glyph unicode="&#xd4;" horiz-adv-x="1740" d="M150 713v4q0 313 207.5 527t514.5 214q315 0 523 -221q197 -213 196 -516q2 -2 0 -4q0 -313 -208 -527.5t-515 -214.5q-315 0 -522 224q-197 211 -196 514zM260 717q0 -195 96 -352q98 -164 271 -242q112 -51 245 -51q266 0 441 190q168 184 168 451v4q0 195 -97.5 355.5 t-269.5 238.5q-113 51 -246 51q-266 0 -437 -187.5t-171 -453.5v-4zM625 1567l204 250h82l205 -250h-96l-152 139l-151 -139h-92z" />
<glyph unicode="&#xd5;" horiz-adv-x="1740" d="M150 713v4q0 313 207.5 527t514.5 214q315 0 523 -221q197 -213 196 -516q2 -2 0 -4q0 -313 -208 -527.5t-515 -214.5q-315 0 -522 224q-197 211 -196 514zM260 717q0 -195 96 -352q98 -164 271 -242q112 -51 245 -51q266 0 441 190q168 184 168 451v4q0 195 -97.5 355.5 t-269.5 238.5q-113 51 -246 51q-266 0 -437 -187.5t-171 -453.5v-4zM567 1567q49 190 172 190q37 0 134.5 -42t127.5 -42q63 0 103 103l70 -19q-49 -190 -173 -190q-37 0 -134 42t-128 42q-63 0 -102 -103z" />
<glyph unicode="&#xd6;" horiz-adv-x="1740" d="M150 713v4q0 313 207.5 527t514.5 214q315 0 523 -221q197 -213 196 -516q2 -2 0 -4q0 -313 -208 -527.5t-515 -214.5q-315 0 -522 224q-197 211 -196 514zM260 717q0 -195 96 -352q98 -164 271 -242q112 -51 245 -51q266 0 441 190q168 184 168 451v4q0 195 -97.5 355.5 t-269.5 238.5q-113 51 -246 51q-266 0 -437 -187.5t-171 -453.5v-4zM633 1567v164h141v-164h-141zM967 1567v164h141v-164h-141z" />
<glyph unicode="&#xd8;" horiz-adv-x="1740" d="M133 -10l205 217q-188 209 -188 506v4q0 313 207.5 527t514.5 214q270 0 467 -170l146 156h123l-205 -217q188 -209 188 -506q2 -2 0 -4q0 -313 -208 -527.5t-515 -214.5q-268 0 -467 168l-145 -153h-123zM260 717q0 -248 152 -430l858 921q-166 154 -402 154 q-266 0 -437 -187.5t-171 -453.5v-4zM471 225q165 -153 401 -153q266 0 441 190q168 184 168 451v4q0 248 -152 430z" />
<glyph unicode="&#xd9;" horiz-adv-x="1556" d="M190 596v838h107v-828q0 -246 119 -385q127 -147 366 -147q221 0 349.5 134t128.5 388v838h106v-826q0 -301 -161 -466t-427 -165q-264 0 -422 160q-166 164 -166 459zM524 1767l125 62l180 -273h-86z" />
<glyph unicode="&#xda;" horiz-adv-x="1556" d="M190 596v838h107v-828q0 -246 119 -385q127 -147 366 -147q221 0 349.5 134t128.5 388v838h106v-826q0 -301 -161 -466t-427 -165q-264 0 -422 160q-166 164 -166 459zM727 1556l180 273l125 -62l-219 -211h-86z" />
<glyph unicode="&#xdb;" horiz-adv-x="1556" d="M190 596v838h107v-828q0 -246 119 -385q127 -147 366 -147q221 0 349.5 134t128.5 388v838h106v-826q0 -301 -161 -466t-427 -165q-264 0 -422 160q-166 164 -166 459zM532 1556l205 250h82l205 -250h-96l-152 140l-151 -140h-93z" />
<glyph unicode="&#xdc;" horiz-adv-x="1556" d="M190 596v838h107v-828q0 -246 119 -385q127 -147 366 -147q221 0 349.5 134t128.5 388v838h106v-826q0 -301 -161 -466t-427 -165q-264 0 -422 160q-166 164 -166 459zM541 1556v164h141v-164h-141zM874 1556v164h142v-164h-142z" />
<glyph unicode="&#xdd;" horiz-adv-x="1466" d="M66 1434h133l536 -770l539 770h127l-615 -865v-569h-106v567zM696 1556l181 273l124 -62l-219 -211h-86z" />
<glyph unicode="&#xde;" horiz-adv-x="1378" d="M213 0v1434h106v-260h414q240 0 386.5 -117t146.5 -322v-4q0 -223 -176 -348q-154 -111 -383 -111h-388v-272h-106zM319 371h394q199 0 322.5 97t123.5 257v4q0 178 -135 268q-117 78 -299 78h-406v-704z" />
<glyph unicode="&#xdf;" horiz-adv-x="1269" d="M190 0v1024q0 215 123 350t328 135q180 0 297 -102q111 -100 111 -256v-4q0 -135 -99 -244q-86 -98 -223 -145q283 -51 379 -221q35 -63 35 -146v-4q0 -281 -320 -364q-102 -27 -229 -27v88q440 8 440 299v4q0 264 -440 313v84q348 104 348 359v4q0 125 -94 199 q-86 70 -211 69q-164 0 -258 -119q-86 -109 -86 -272v-1024h-101z" />
<glyph unicode="&#xe0;" horiz-adv-x="1175" d="M104 303v4q0 246 271 318q84 23 186 22q180 0 346 -45v45q0 319 -344 320q-164 0 -327 -84l-37 88q188 90 370 90q203 0 320 -104.5t117 -305.5v-651h-99v174q-143 -199 -399 -199q-162 0 -277 82q-127 92 -127 246zM211 309q0 -115 98 -180q86 -59 205 -59q113 0 209 47 q104 51 156 143q31 59 30 131v119q-188 47 -354 47q-139 0 -231 -51q-113 -63 -113 -193v-4zM322 1430l124 61l181 -272h-86z" />
<glyph unicode="&#xe1;" horiz-adv-x="1175" d="M104 303v4q0 246 271 318q84 23 186 22q180 0 346 -45v45q0 319 -344 320q-164 0 -327 -84l-37 88q188 90 370 90q203 0 320 -104.5t117 -305.5v-651h-99v174q-143 -199 -399 -199q-162 0 -277 82q-127 92 -127 246zM211 309q0 -115 98 -180q86 -59 205 -59q113 0 209 47 q104 51 156 143q31 59 30 131v119q-188 47 -354 47q-139 0 -231 -51q-113 -63 -113 -193v-4zM524 1219l181 272l124 -61l-219 -211h-86z" />
<glyph unicode="&#xe2;" horiz-adv-x="1175" d="M104 303v4q0 246 271 318q84 23 186 22q180 0 346 -45v45q0 319 -344 320q-164 0 -327 -84l-37 88q188 90 370 90q203 0 320 -104.5t117 -305.5v-651h-99v174q-143 -199 -399 -199q-162 0 -277 82q-127 92 -127 246zM211 309q0 -115 98 -180q86 -59 205 -59q113 0 209 47 q104 51 156 143q31 59 30 131v119q-188 47 -354 47q-139 0 -231 -51q-113 -63 -113 -193v-4zM348 1219l205 249h82l205 -249h-97l-151 139l-152 -139h-92z" />
<glyph unicode="&#xe3;" horiz-adv-x="1175" d="M104 303v4q0 246 271 318q84 23 186 22q180 0 346 -45v45q0 319 -344 320q-164 0 -327 -84l-37 88q188 90 370 90q203 0 320 -104.5t117 -305.5v-651h-99v174q-143 -199 -399 -199q-162 0 -277 82q-127 92 -127 246zM211 309q0 -115 98 -180q86 -59 205 -59q113 0 209 47 q104 51 156 143q31 59 30 131v119q-188 47 -354 47q-139 0 -231 -51q-113 -63 -113 -193v-4zM291 1219q49 190 172 190q37 0 134 -42t128 -42q63 0 102 102l70 -18q-49 -190 -172 -190q-37 0 -134 42t-128 42q-63 0 -103 -103z" />
<glyph unicode="&#xe4;" horiz-adv-x="1175" d="M104 303v4q0 246 271 318q84 23 186 22q180 0 346 -45v45q0 319 -344 320q-164 0 -327 -84l-37 88q188 90 370 90q203 0 320 -104.5t117 -305.5v-651h-99v174q-143 -199 -399 -199q-162 0 -277 82q-127 92 -127 246zM211 309q0 -115 98 -180q86 -59 205 -59q113 0 209 47 q104 51 156 143q31 59 30 131v119q-188 47 -354 47q-139 0 -231 -51q-113 -63 -113 -193v-4zM356 1219v163h142v-163h-142zM690 1219v163h141v-163h-141z" />
<glyph unicode="&#xe5;" horiz-adv-x="1175" d="M104 303v4q0 246 271 318q84 23 186 22q180 0 346 -45v45q0 319 -344 320q-164 0 -327 -84l-37 88q188 90 370 90q203 0 320 -104.5t117 -305.5v-651h-99v174q-143 -199 -399 -199q-162 0 -277 82q-127 92 -127 246zM211 309q0 -115 98 -180q86 -59 205 -59q113 0 209 47 q104 51 156 143q31 59 30 131v119q-188 47 -354 47q-139 0 -231 -51q-113 -63 -113 -193v-4zM393 1405v4q0 78 60.5 134t140.5 56t140.5 -56t60.5 -134v-4q0 -78 -61.5 -134.5t-139.5 -56.5q-80 0 -140.5 56.5t-60.5 134.5zM467 1405q0 -51 38 -88t89 -37t89 37t38 88v4 q0 53 -37 89t-90 36t-90 -36t-37 -89v-4z" />
<glyph unicode="&#xe6;" horiz-adv-x="1953" d="M104 303v4q0 244 267 318q82 23 180 22q162 0 328 -45v45q0 319 -330 320q-150 0 -313 -84l-37 88q195 90 356 90q326 0 395 -262q63 125 174 197.5t248 72.5q223 0 357 -168q123 -154 122 -379v-20q0 -8 -2 -21h-866q12 -184 135 -303q113 -109 275 -108q205 0 358 163 l70 -61q-182 -197 -432 -197q-274 0 -422 230q-199 -230 -469 -230q-160 0 -271 84q-123 92 -123 244zM211 309q0 -115 92 -180q84 -59 201 -59q242 0 418 219q-41 102 -45 223q-180 45 -332 45q-137 0 -226 -51q-109 -63 -108 -193v-4zM983 571h760q-14 176 -107 285 q-102 121 -268 121q-162 0 -272 -125q-100 -117 -113 -281z" />
<glyph unicode="&#xe7;" horiz-adv-x="1169" d="M119 518v4q0 223 155.5 385t376.5 162q197 0 340 -119q41 -35 78 -73l-72 -74q-168 172 -348 172q-182 0 -302 -133t-120 -316v-4q0 -186 124 -319t306 -133q195 0 351 174l69 -62q-178 -197 -401 -207l-137 -278l-113 53l156 230q-201 25 -332 181t-131 357z" />
<glyph unicode="&#xe8;" horiz-adv-x="1196" d="M119 520v4q0 162 78.5 298t220.5 204q90 43 196 43q223 0 357 -168q123 -154 123 -379v-20q0 -8 -2 -21h-867q12 -184 135 -303q113 -109 275 -108q205 0 358 163l70 -61q-182 -197 -432 -197q-225 0 -373 164q-139 156 -139 381zM225 571h760q-14 176 -106 285 q-102 121 -269 121q-162 0 -272 -125q-100 -117 -113 -281zM367 1430l125 61l180 -272h-86z" />
<glyph unicode="&#xe9;" horiz-adv-x="1196" d="M119 520v4q0 162 78.5 298t220.5 204q90 43 196 43q223 0 357 -168q123 -154 123 -379v-20q0 -8 -2 -21h-867q12 -184 135 -303q113 -109 275 -108q205 0 358 163l70 -61q-182 -197 -432 -197q-225 0 -373 164q-139 156 -139 381zM225 571h760q-14 176 -106 285 q-102 121 -269 121q-162 0 -272 -125q-100 -117 -113 -281zM526 1219l181 272l124 -61l-219 -211h-86z" />
<glyph unicode="&#xea;" horiz-adv-x="1196" d="M119 520v4q0 162 78.5 298t220.5 204q90 43 196 43q223 0 357 -168q123 -154 123 -379v-20q0 -8 -2 -21h-867q12 -184 135 -303q113 -109 275 -108q205 0 358 163l70 -61q-182 -197 -432 -197q-225 0 -373 164q-139 156 -139 381zM225 571h760q-14 176 -106 285 q-102 121 -269 121q-162 0 -272 -125q-100 -117 -113 -281zM362 1219l205 249h82l205 -249h-96l-152 139l-151 -139h-93z" />
<glyph unicode="&#xeb;" horiz-adv-x="1196" d="M119 520v4q0 162 78.5 298t220.5 204q90 43 196 43q223 0 357 -168q123 -154 123 -379v-20q0 -8 -2 -21h-867q12 -184 135 -303q113 -109 275 -108q205 0 358 163l70 -61q-182 -197 -432 -197q-225 0 -373 164q-139 156 -139 381zM225 571h760q-14 176 -106 285 q-102 121 -269 121q-162 0 -272 -125q-100 -117 -113 -281zM371 1219v163h141v-163h-141zM705 1219v163h141v-163h-141z" />
<glyph unicode="&#xec;" horiz-adv-x="509" d="M-10 1430l125 61l180 -272h-86zM205 0v1044h100v-1044h-100z" />
<glyph unicode="&#xed;" horiz-adv-x="509" d="M205 0v1044h100v-1044h-100zM215 1219l180 272l125 -61l-219 -211h-86z" />
<glyph unicode="&#xee;" horiz-adv-x="509" d="M8 1219l205 249h82l205 -249h-97l-151 139l-152 -139h-92zM205 0v1044h100v-1044h-100z" />
<glyph unicode="&#xef;" horiz-adv-x="509" d="M16 1219v163h142v-163h-142zM205 0v1044h100v-1044h-100zM350 1219v163h142v-163h-142z" />
<glyph unicode="&#xf0;" horiz-adv-x="1286" d="M119 498v4q0 154 82 277.5t225 181.5q88 35 184 34q199 0 363 -129l-301 426l-273 -139l-59 74l281 137l-93 131h129l56 -84l200 102l58 -73l-209 -103l223 -329q178 -264 178 -498v-4q0 -227 -152.5 -379t-377.5 -152q-217 0 -365.5 154t-148.5 369zM227 492 q0 -168 117 -291q123 -131 299 -131q131 0 233.5 71.5t149.5 192.5q29 78 29 162v4q0 174 -129 289.5t-303 115.5q-129 0 -226.5 -65.5t-140.5 -182.5q-29 -76 -29 -161v-4z" />
<glyph unicode="&#xf1;" horiz-adv-x="1255" d="M190 0v1044h101v-194q127 219 377 219q195 0 309 -121q109 -117 108 -309v-639h-100v621q0 162 -86 259t-246 97t-261 -107.5t-101 -265.5v-604h-101zM334 1219q49 190 172 190q37 0 134 -42t128 -42q63 0 102 102l70 -18q-49 -190 -172 -190q-37 0 -134 42t-128 42 q-63 0 -103 -103z" />
<glyph unicode="&#xf2;" d="M119 518v4q0 227 156.5 387t381.5 160q227 0 381 -158.5t154 -384.5v-4q0 -227 -157 -387t-382 -160q-227 0 -380.5 159t-153.5 384zM227 522q0 -137 70 -250.5t192 -167.5q78 -34 168 -34q186 0 308 135q119 129 118 313v4q0 137 -69.5 251t-190.5 167q-80 35 -170 35 q-186 0 -306 -132t-120 -317v-4zM391 1430l125 61l180 -272h-86z" />
<glyph unicode="&#xf3;" d="M119 518v4q0 227 156.5 387t381.5 160q227 0 381 -158.5t154 -384.5v-4q0 -227 -157 -387t-382 -160q-227 0 -380.5 159t-153.5 384zM227 522q0 -137 70 -250.5t192 -167.5q78 -34 168 -34q186 0 308 135q119 129 118 313v4q0 137 -69.5 251t-190.5 167q-80 35 -170 35 q-186 0 -306 -132t-120 -317v-4zM614 1219l181 272l125 -61l-220 -211h-86z" />
<glyph unicode="&#xf4;" d="M119 518v4q0 227 156.5 387t381.5 160q227 0 381 -158.5t154 -384.5v-4q0 -227 -157 -387t-382 -160q-227 0 -380.5 159t-153.5 384zM227 522q0 -137 70 -250.5t192 -167.5q78 -34 168 -34q186 0 308 135q119 129 118 313v4q0 137 -69.5 251t-190.5 167q-80 35 -170 35 q-186 0 -306 -132t-120 -317v-4zM410 1219l204 249h82l205 -249h-96l-152 139l-151 -139h-92z" />
<glyph unicode="&#xf5;" d="M119 518v4q0 227 156.5 387t381.5 160q227 0 381 -158.5t154 -384.5v-4q0 -227 -157 -387t-382 -160q-227 0 -380.5 159t-153.5 384zM227 522q0 -137 70 -250.5t192 -167.5q78 -34 168 -34q186 0 308 135q119 129 118 313v4q0 137 -69.5 251t-190.5 167q-80 35 -170 35 q-186 0 -306 -132t-120 -317v-4zM352 1219q49 190 172 190q37 0 134.5 -42t127.5 -42q63 0 103 102l69 -18q-49 -190 -172 -190q-37 0 -134 42t-128 42q-63 0 -102 -103z" />
<glyph unicode="&#xf6;" d="M119 518v4q0 227 156.5 387t381.5 160q227 0 381 -158.5t154 -384.5v-4q0 -227 -157 -387t-382 -160q-227 0 -380.5 159t-153.5 384zM227 522q0 -137 70 -250.5t192 -167.5q78 -34 168 -34q186 0 308 135q119 129 118 313v4q0 137 -69.5 251t-190.5 167q-80 35 -170 35 q-186 0 -306 -132t-120 -317v-4zM418 1219v163h141v-163h-141zM752 1219v163h141v-163h-141z" />
<glyph unicode="&#xf8;" d="M88 -10l162 168q-131 154 -131 360v4q0 227 156.5 387t381.5 160q201 0 342 -125l107 115h117l-164 -172q133 -150 133 -361v-4q0 -227 -157 -387t-382 -160q-197 0 -342 123l-106 -108h-117zM227 522q0 -168 97 -289l610 633q-121 109 -281 109q-186 0 -306 -132 t-120 -317v-4zM377 176q118 -106 280 -106q186 0 308 135q119 129 118 313v4q0 162 -96 289z" />
<glyph unicode="&#xf9;" horiz-adv-x="1255" d="M170 406v638h100v-620q0 -162 86 -259t246 -97t261.5 107.5t101.5 264.5v604h100v-1044h-100v195q-127 -220 -377 -220q-195 0 -306.5 119t-111.5 312zM373 1419l125 62l180 -273h-86z" />
<glyph unicode="&#xfa;" horiz-adv-x="1255" d="M170 406v638h100v-620q0 -162 86 -259t246 -97t261.5 107.5t101.5 264.5v604h100v-1044h-100v195q-127 -220 -377 -220q-195 0 -306.5 119t-111.5 312zM567 1208l181 273l124 -62l-219 -211h-86z" />
<glyph unicode="&#xfb;" horiz-adv-x="1255" d="M170 406v638h100v-620q0 -162 86 -259t246 -97t261.5 107.5t101.5 264.5v604h100v-1044h-100v195q-127 -220 -377 -220q-195 0 -306.5 119t-111.5 312zM385 1219l205 249h82l205 -249h-97l-151 139l-152 -139h-92z" />
<glyph unicode="&#xfc;" horiz-adv-x="1255" d="M170 406v638h100v-620q0 -162 86 -259t246 -97t261.5 107.5t101.5 264.5v604h100v-1044h-100v195q-127 -220 -377 -220q-195 0 -306.5 119t-111.5 312zM393 1219v163h142v-163h-142zM727 1219v163h141v-163h-141z" />
<glyph unicode="&#xfd;" horiz-adv-x="1204" d="M80 1044h117l434 -933l377 933h110l-452 -1081q-126 -297 -349 -297q-100 0 -206 45l34 88q78 -39 179 -39q121 0 200 131q29 47 58 115zM575 1208l181 273l125 -62l-219 -211h-87z" />
<glyph unicode="&#xfe;" horiz-adv-x="1351" d="M190 -328v1823h101v-684q166 258 430 258q201 0 348 -143q160 -156 160 -400v-4q0 -244 -160 -399q-150 -147 -348 -148q-211 0 -354 156q-43 45 -76 94v-553h-101zM285 520q0 -139 70.5 -250.5t197.5 -165.5q76 -32 158 -32q190 0 303 133q106 125 106 313v4 q0 203 -121 330q-119 121 -288 121q-129 0 -233.5 -74t-155.5 -192q-37 -82 -37 -183v-4z" />
<glyph unicode="&#xff;" horiz-adv-x="1204" d="M80 1044h117l434 -933l377 933h110l-452 -1081q-126 -297 -349 -297q-100 0 -206 45l34 88q78 -39 179 -39q121 0 200 131q29 47 58 115zM365 1219v163h141v-163h-141zM698 1219v163h142v-163h-142z" />
<glyph unicode="&#x152;" horiz-adv-x="2359" d="M150 713v4q0 309 215 513t546 204h1309v-99h-883v-563h791v-98h-791v-576h893v-98h-1319q-334 0 -547.5 203t-213.5 510zM260 717q0 -276 193 -451q184 -168 458 -168h320v1237h-320q-293 0 -472 -176t-179 -438v-4z" />
<glyph unicode="&#x153;" horiz-adv-x="2160" d="M119 518v4q0 225 156.5 386t379.5 161q160 0 287 -86t193 -233q57 145 176 232t270 87q223 0 356 -168q121 -154 121 -379v-20q0 -8 -2 -21h-866q12 -184 135 -303q113 -109 274 -108q205 0 359 163l70 -61q-182 -197 -429 -197q-242 0 -387 189q-47 59 -77 133 q-66 -150 -194 -236t-290 -86q-225 0 -378.5 160t-153.5 383zM227 522q0 -137 70 -250.5t192 -167.5q78 -34 168 -34q186 0 308 135q119 129 118 313v4q0 137 -69.5 251t-190.5 167q-80 35 -170 35q-186 0 -306 -132t-120 -317v-4zM1190 571h760q-14 176 -107 285 q-102 121 -268 121q-162 0 -272 -125q-100 -117 -113 -281z" />
<glyph unicode="&#x178;" horiz-adv-x="1466" d="M66 1434h133l536 -770l539 770h127l-615 -865v-569h-106v567zM496 1556v164h141v-164h-141zM829 1556v164h142v-164h-142z" />
<glyph unicode="&#x2c6;" horiz-adv-x="1024" d="M266 1219l205 249h82l205 -249h-96l-152 139l-152 -139h-92z" />
<glyph unicode="&#x2dc;" horiz-adv-x="1024" d="M209 1219q49 190 172 190q37 0 134 -42t128 -42q63 0 102 102l70 -18q-49 -190 -172 -190q-37 0 -134 42t-128 42q-63 0 -102 -103z" />
<glyph unicode="&#x2000;" horiz-adv-x="919" />
<glyph unicode="&#x2001;" horiz-adv-x="1839" />
<glyph unicode="&#x2002;" horiz-adv-x="919" />
<glyph unicode="&#x2003;" horiz-adv-x="1839" />
<glyph unicode="&#x2004;" horiz-adv-x="613" />
<glyph unicode="&#x2005;" horiz-adv-x="459" />
<glyph unicode="&#x2006;" horiz-adv-x="306" />
<glyph unicode="&#x2007;" horiz-adv-x="306" />
<glyph unicode="&#x2008;" horiz-adv-x="229" />
<glyph unicode="&#x2009;" horiz-adv-x="367" />
<glyph unicode="&#x200a;" horiz-adv-x="102" />
<glyph unicode="&#x2010;" horiz-adv-x="835" d="M143 551v115h549v-115h-549z" />
<glyph unicode="&#x2011;" horiz-adv-x="835" d="M143 551v115h549v-115h-549z" />
<glyph unicode="&#x2012;" horiz-adv-x="835" d="M143 551v115h549v-115h-549z" />
<glyph unicode="&#x2013;" horiz-adv-x="1081" d="M143 555v107h795v-107h-795z" />
<glyph unicode="&#x2014;" horiz-adv-x="1839" d="M143 555v107h1553v-107h-1553z" />
<glyph unicode="&#x2018;" horiz-adv-x="471" d="M158 1051v151q0 96 39 151.5t131 90.5l24 -51q-121 -66 -114 -168h55v-174h-135z" />
<glyph unicode="&#x2019;" horiz-adv-x="471" d="M119 1092q121 66 114 168h-55v174h135v-152q0 -96 -38.5 -151.5t-131.5 -90.5z" />
<glyph unicode="&#x201a;" horiz-adv-x="471" d="M109 -168q121 66 114 168h-55v174h135v-151q0 -96 -39 -151.5t-131 -90.5z" />
<glyph unicode="&#x201c;" horiz-adv-x="839" d="M158 1051v151q0 96 39 151.5t131 90.5l24 -51q-121 -66 -114 -168h55v-174h-135zM526 1051v151q0 96 39 151.5t131 90.5l25 -51q-121 -66 -115 -168h56v-174h-136z" />
<glyph unicode="&#x201d;" horiz-adv-x="839" d="M119 1092q121 66 114 168h-55v174h135v-152q0 -96 -38.5 -151.5t-131.5 -90.5zM487 1092q121 66 115 168h-55v174h135v-152q0 -96 -39 -151.5t-131 -90.5z" />
<glyph unicode="&#x201e;" horiz-adv-x="839" d="M109 -168q121 66 114 168h-55v174h135v-151q0 -96 -39 -151.5t-131 -90.5zM477 -168q121 66 115 168h-55v174h135v-151q0 -96 -39 -151.5t-131 -90.5z" />
<glyph unicode="&#x2022;" horiz-adv-x="962" d="M227 719v4q0 102 76 177t178 75t178 -76t76 -176v-4q0 -104 -75 -178t-179 -74t-179 73.5t-75 178.5z" />
<glyph unicode="&#x2026;" horiz-adv-x="1392" d="M168 0v170h131v-170h-131zM631 0v170h131v-170h-131zM1094 0v170h131v-170h-131z" />
<glyph unicode="&#x202f;" horiz-adv-x="367" />
<glyph unicode="&#x2039;" horiz-adv-x="636" d="M104 514v16l328 428l76 -49l-281 -385l281 -389l-76 -49z" />
<glyph unicode="&#x203a;" horiz-adv-x="636" d="M129 135l281 385l-281 389l76 49l327 -428v-16l-327 -428z" />
<glyph unicode="&#x205f;" horiz-adv-x="459" />
<glyph unicode="&#x2122;" horiz-adv-x="1413" d="M53 1364v70h486v-70h-207v-561h-72v561h-207zM682 803v631h76l246 -375l245 375h74v-631h-72v504l-243 -365h-11l-243 365v-504h-72z" />
<glyph unicode="&#x25fc;" horiz-adv-x="1044" d="M0 0v1044h1044v-1044h-1044z" />
</font>
</defs>
</svg>
